Baby and Me | Descargar Torrent | Underemployed

Скачать через торрент [VIDEO] Судья Дредд 3D Dredd бесплатно русская версия torrent активатор

Статистика раздачи
Размер:  1.22 GB   |    Зарегистрирован:  3 года 6 месяцев   |    .torrent скачан:  73 раза   |   
Раздают:  1  
   
загрузка...
 
Автор Сообщение

Galfimbul

avatar Galfimbul


Судья Дредд 3D
Dredd

Год выпуска: 2012
Страна: Великобритания, США, Индия (DNA Films, IM Global, Reliance Big Entertainment, Reliance Big Pictures)
Жанр: Фантастика, боевик, триллер
Продолжительность: 01:35:35
Перевод 1: Профессиональный (дублированный)
Перевод 2: Авторский (одноголосый) [Сербин]
Оригинальная дорожка: Английский
Cубтитры: Русские, полные, отключаемые
Режиссер: Пит Трэвис / Pete Travis
В ролях: Карл Урбан, Оливия Тирлби, Лина Хиди, Вуд Харрис, Рэйчел Вуд, Андил Мнгади, Портес Ксандо Стинкамп, Джейсон Коуп, Эмма Бреши, Рэки Айола
Описание: Будущее не столь красочно и великолепно, каким его представляют современные люди. Через несколько столетий человечество окажется на грани самоуничтожения, захлёбываясь в кровавых преступлениях, смертельных грехах и беспорядочных убийствах. Старую систему правосудия будет невозможно использовать — анархия, всеобщие беспорядки вынуждают ещё сохранившуюся власть, тем не менее, потерявшую всякий авторитет и легитимность, пойти на отчаянные крайние меры и ввести институт Судей — универсальных полицейских, правоприменителей, а по совместительству — и прокуроров, которые упростили бы весь процесс задержания, следствия и судебных тяжб, совмещая в одном лице все должности блюстителей и защитников правопорядка.
Негодяи, подонки, вконец обнаглевшие и распоясавшиеся преступники и бандитские группировки всё равно не желают сдавать свои упрочившие позиции, опасаясь лишь одного — встречи с легендарным Судьёй Дреддом, пересажавшим или расстрелявшим не одну сотню насильников, террористов и жадных до человеческих страданий маньяков. В то время, как беспорядки и бесчинства бушуют на улицах города, Дредд спешит вернуть порядок, Закон и тишину, которым, кажется, уже никогда не обрести свою былую полноту, мощь и силу…

Качество: HDRip (Рип с BDRip 1080p)
Формат: MP4
Видео: AVC, 960x400 (2.40:1), 1429 kbps, 23.976 fps
Аудио 1: Русский, AAC, 2 ch, 48 kHz, 128 kbps [Dub]
Аудио 2: Русский, AAC, 2 ch, 48 kHz, 128 kbps [AVO, Сербин]
Аудио 3: Английский, AAC, 2 ch, 48 kHz, 128 kbps [Original]
Режиссёр Пит Трэвис не был допущен к монтажу фильма из-за творческих разногласий с продюсерами.
Майкл Бин пробовался на главную роль, которая в итоге досталась Карлу Урбану.
Судья Дредд создан писателем Джоном Вагнером и художником Карлосом Эскуэрра.
Дункану Джонсу предлагали снимать фильм, но он отказался, не потому что ему не понравился сценарий Алекса Гарленда (Джонс сказал, что сценарий вышел отличный). Потому что у него была четкая идея того, что он хотел сделать с фильмом, и он чувствовал, что не смог бы заставить себя принять сценарий Гарленда и не сделать фильм по-своему.
Блок Peach Tree назван в честь ресторана в Шрусбери, там сценарист Алекс Гарленд и создатель судьи Дредда Джон Вагнер впервые встретились, чтобы обсудить фильм.
Судья Джозеф Дредд — это вымышленный персонаж, чей комикс в антологии британской научной фантастики (2000 AD) является самым продолжительным, и появляется там со второго выпуска в 1977 году.
В серии комиксов про Судью Дредда всем блокам даны названия с некой привязкой к создателям, вдохновляющим идеям или текущим событиям на момент написания. Ближайший блок к «Peach Trees», где и разворачивается фильм, это «Sternhammer», который видно в начале и в конце фильма. Он так же упоминается как блок, где разместился один из соперников клана «Ma-Ma». Wulf Sternhammer — популярный персонаж из серии комиксов «Strontium Dog» в 2000AD, в создании которого участвовали многие писатели Судьи Дредда, в этих комиксах даже были пересекающиеся сюжетные линии.
Голос Карла Урбана, которым он говорит в роли Дредда, чем-то похож на голос Клинта Иствуда. Судья Дредд на самом деле частично основан на персонаже Иствуда из сериала «Сыромятная плеть» (1959-1966), на это так же указывает название блока, в котором живет Дредд, Роуди Йетс (имя персонажа из этого сериала).
Главный судья не упоминается по имени в фильме. По внешнему виду она представляет собой комбинацию из Главных судей McGruder и Silver, а окружающая обстановка (ограждающая стена и мемориал Fergee) указывают на то, что фильм относится к тому времени в истории Мега-сити, когда был первый период McGruder в должности главного судьи.
Музыка, которую постоянно слышно в компьютерном зале Клана Течи, это главная тема из сериала BBC «Табакерка» (2006).
Как только Дредд и Андерсон входят в блок «Peach Trees», Дредд говорит бездомному, чтобы тот ушел к тому времени, как они уйдут. Когда они уходят, тяжелые взрывозащитные двери опускаются на бездомного, раздавливая его дом. В конце фильма двери поднимаются, и нет никаких следов того, что кто-то был раздавлен.
x264 [info]: frame I:1230 Avg QP:15.80 size: 65731
x264 [info]: frame P:28533 Avg QP:19.60 size: 18122
x264 [info]: frame B:107756 Avg QP:22.75 size: 3961

x264 [total]: encoded 137519 frames, 9.37 fps, 1429.34 kb/s
General
Complete name : [VIDEO] Dredd.2012.HDRip.x264.960x(semen_52-TNC).mp4
Format : MPEG-4
Format profile : Base Media
Codec ID : isom
File size : 1.22 GiB
Duration : 1h 35mn
Overall bit rate mode : Variable
Overall bit rate : 1 828 Kbps
Movie name : [VIDEO] Dredd 2012 HDRip x264 960x(semen_52-TNC)
ContentType : Short Film
Encoded date : UTC 2014-12-24 17:08:48
Tagged date : UTC 2014-12-24 17:10:53
Writing application : MkvToMp4 version: 0.224 (x64)
Comment : Rip by semen_52-TNC

Video
ID : 1
Format : AVC
Format/Info : Advanced Video Codec
Format profile : [email protected]
Format settings, CABAC : Yes
Format settings, ReFrames : 8 frames
Codec ID : avc1
Codec ID/Info : Advanced Video Coding
Duration : 1h 35mn
Bit rate : 1 429 Kbps
Maximum bit rate : 9 821 Kbps
Width : 960 pixels
Height : 400 pixels
Display aspect ratio : 2.40:1
Frame rate mode : Constant
Frame rate : 23.976 fps
Color space : YUV
Chroma subsampling : 4:2:0
Bit depth : 8 bits
Scan type : Progressive
Bits/(Pixel*Frame) : 0.155
Stream size : 977 MiB (78%)
Writing library : x264 core 130 r2273 b3065e6
Encoding settings : cabac=1 / ref=8 / deblock=1:-3:-3 / analyse=0x3:0x113 / me=esa / subme=9 / psy=1 / psy_rd=1.00:0.10 / mixed_ref=1 / me_range=32 / chroma_me=1 / trellis=2 / 8x8dct=1 / cqm=0 / deadzone=21,11 / fast_pskip=0 / chroma_qp_offset=-3 / threads=12 / lookahead_threads=2 / sliced_threads=0 / nr=0 / decimate=1 / interlaced=0 / bluray_compat=0 / constrained_intra=0 / bframes=10 / b_pyramid=2 / b_adapt=2 / b_bias=0 / direct=1 / weightb=1 / open_gop=0 / weightp=2 / keyint=250 / keyint_min=25 / scenecut=40 / intra_refresh=0 / rc_lookahead=60 / rc=crf / mbtree=1 / crf=19.0 / qcomp=0.60 / qpmin=0 / qpmax=69 / qpstep=4 / ip_ratio=1.40 / aq=2:0.90
Language : English
Encoded date : UTC 2014-12-24 17:08:48
Tagged date : UTC 2014-12-24 17:09:15

Audio #1
ID : 2
Format : AAC
Format/Info : Advanced Audio Codec
Format profile : LC
Codec ID : 40
Duration : 1h 35mn
Bit rate mode : Variable
Bit rate : 128 Kbps
Maximum bit rate : 135 Kbps
Channel(s) : 2 channels
Channel positions : Front: L R
Sampling rate : 48.0 KHz
Compression mode : Lossy
Stream size : 87.5 MiB (7%)
Title : Dub
Language : Russian
Encoded date : UTC 2014-12-24 17:09:01
Tagged date : UTC 2014-12-24 17:09:15

Audio #2
ID : 3
Format : AAC
Format/Info : Advanced Audio Codec
Format profile : LC
Codec ID : 40
Duration : 1h 35mn
Bit rate mode : Variable
Bit rate : 128 Kbps
Maximum bit rate : 135 Kbps
Channel(s) : 2 channels
Channel positions : Front: L R
Sampling rate : 48.0 KHz
Compression mode : Lossy
Stream size : 87.5 MiB (7%)
Title : AVO Serbin
Language : Russian
Encoded date : UTC 2014-12-24 17:09:06
Tagged date : UTC 2014-12-24 17:09:15

Audio #3
ID : 4
Format : AAC
Format/Info : Advanced Audio Codec
Format profile : LC
Codec ID : 40
Duration : 1h 35mn
Bit rate mode : Variable
Bit rate : 128 Kbps
Maximum bit rate : 135 Kbps
Channel(s) : 2 channels
Channel positions : Front: L R
Sampling rate : 48.0 KHz
Compression mode : Lossy
Stream size : 87.5 MiB (7%)
Title : Original
Language : English
Encoded date : UTC 2014-12-24 17:09:10
Tagged date : UTC 2014-12-24 17:09:15

Text
ID : 5
Format : Timed Text
Muxing mode : sbtl
Codec ID : tx3g
Duration : 1h 28mn
Bit rate mode : Variable
Bit rate : 74 bps
Stream size : 48.0 KiB (0%)
Title : Full
Language : Russian
Encoded date : UTC 2014-12-24 17:09:15
Tagged date : UTC 2014-12-24 17:09:15


Трекер:  [ 24-Дек-2014 23:00 ]

  

Скачать .torrent

Размер .torrent файла 12 KB


Размер: 1.22 GB
Хэш (hash) релиза: f187ac13f8aa313db59e103781d0bd98f60b6607

Еще никто не оставлял запись к записи скачать торрент [VIDEO] Судья Дредд 3D Dredd . Будь первым!

!Обратная связь