Aaron Hernandez Uncovered Part II | Raid (2018) Hindi Movie 720p HDRip 1GB 350MB Download | Next »

Скачать через торрент [VIDEO] Писака The scribbler бесплатно русская версия torrent активатор

Статистика раздачи
Размер:  500 MB   |    Зарегистрирован:  3 года 6 месяцев   |    .torrent скачан:  46 раз   |   
Раздают:  1  
   
загрузка...
 
Автор Сообщение

Galfimbul

avatar Galfimbul


Писака / The scribbler

Год выпуска: 2014

Страна: США
Жанр: научная фантастика, триллер, ужасы
Продолжительность: 01:29:27
Перевод: Любительский (двухголосый закадровый) [Savetig Studios]
Cубтитры: нет
Оригинальная аудиодорожка: нет

Режиссер: Джон Суитц / John Suits
В ролях: Мишель Трахтенберг, Гаррет Диллахант, Кэти Кэссиди, Майкл Империоли, Джина Гершон, Саша Грэй, Кунал Нэйэр, Эшлинн Йенни, Билл Кэмпбелл, Люк Барнетт, Т.В. Карпио, Брэд Калвер, Элиза Душку, Сэр Халливуд, Джессика Ли, Сюзанна Межан, Ричард Рили, Сара Суитц.

Описание: События фильма разворачиваются вокруг молодой женщины, только что выписавшейся из психбольницы. Ее направляют в специальный медицинский корпус, который должен завершить лечение и подготовить девушку к нормальной жизни в социуме. Там она должна избавиться от своих побочных личностей, из-за которых загремела в психушку. После ее прибытия персонал отдела начинает вымирать с огромной скоростью, при достаточно необычных обстоятельствах…

Доп. информация:


Сэмпл

Качество: WEB-DLRip
Формат: MP4
Видео: AVC, 640x272 (2.35:1), 649 kbps, 23.976 fps
Аудио: русский, AAC, 2 ch, 48.0 kHz, 128 kbps
ОбщееПолное имя : TheScribbler2014.mp4Формат : MPEG-4Профиль формата : Base MediaИдентификатор кодека : isomРазмер файла : 500 МбайтПродолжительность : 1 ч. 29 м.Общий поток : 781 Кбит/секПрограмма кодирования : Lavf56.16.101

ВидеоИдентификатор : 1Формат : AVCФормат/Информация : Advanced Video CodecПрофиль формата : [email protected]Параметр CABAC формата : ДаПараметр ReFrames формата : 2 кадраИдентификатор кодека : avc1Идентификатор кодека/Информация : Advanced Video CodingПродолжительность : 1 ч. 29 м.Битрейт : 649 Кбит/секШирина : 640 пикселейВысота : 272 пикселяСоотношение сторон : 2,35:1Режим частоты кадров : ПостоянныйЧастота кадров : 23,976 кадра/секЦветовое пространство : YUVСубдискретизация насыщенности : 4:2:0Битовая глубина : 8 битТип развёртки : ПрогрессивнаяБит/(Пиксели*Кадры) : 0.155Размер потока : 415 Мбайт (83%)Библиотека кодирования : x264 core 142 r2491Настройки программы : cabac=1 / ref=2 / deblock=1:0:0 / analyse=0x1:0x131 / me=hex / subme=7 / psy=1 / psy_rd=1.00:0.00 / mixed_ref=0 / me_range=16 / chroma_me=1 / trellis=1 / 8x8dct=0 / cqm=0 / deadzone=21,11 / fast_pskip=1 / chroma_qp_offset=-2 / threads=6 / lookahead_threads=1 / sliced_threads=0 / nr=0 / decimate=1 / interlaced=0 / bluray_compat=0 / constrained_intra=0 / bframes=3 / b_pyramid=0 / b_adapt=1 / b_bias=0 / direct=3 / weightb=1 / open_gop=0 / weightp=2 / keyint=230 / keyint_min=23 / scenecut=40 / intra_refresh=0 / rc_lookahead=40 / rc=abr / mbtree=1 / bitrate=649 / ratetol=1.0 / qcomp=0.60 / qpmin=10 / qpmax=69 / qpstep=4 / vbv_maxrate=24000 / vbv_bufsize=24000 / nal_hrd=none / filler=0 / ip_ratio=1.40 / aq=1:1.00

АудиоИдентификатор : 2Формат : AACФормат/Информация : Advanced Audio CodecПрофиль формата : LCИдентификатор кодека : 40Продолжительность : 1 ч. 29 м.Вид битрейта : ПостоянныйБитрейт : 128 Кбит/секКаналы : 2 каналаРасположение каналов : Front: L RЧастота : 48,0 КГцМетод сжатия : С потерямиРазмер потока : 81,9 Мбайт (16%)


Трекер:  [ 24-Дек-2014 18:30 ]

  

Скачать .torrent

Размер .torrent файла 39 KB


Размер: 500 MB
Хэш (hash) релиза: 4dee08d201a257af40c683c7d99b90fde01f0146

Еще никто не оставлял запись к записи скачать торрент [VIDEO] Писака The scribbler . Будь первым!

!Обратная связь