Jak poznałem waszą matkę / ... | Death Parade | Disneys Große Pause

Скачать через торрент [VIDEO] Великий уравнитель The Equalizer бесплатно русская версия torrent активатор

Статистика раздачи
Размер:  1.31 GB   |    Зарегистрирован:  3 года 7 месяцев   |    .torrent скачан:  94 раза   |   
Раздают:  1  
   
загрузка...
 
Автор Сообщение

Galfimbul

avatar Galfimbul


Великий уравнитель
The Equalizer

Год выпуска: 2014
Страна: США (Columbia Pictures, Escape Artists, Lonetree Entertainment, LStar Capital, Mace Neufeld Productions, Village Roadshow Pictures, ZHIV Productions)
Жанр: боевик, триллер, криминал
Продолжительность: 02:12:02
Перевод: Профессиональный (дублированный) [BD CEE]
Оригинальная дорожка: Английский
Cубтитры: Русские, форсированные и полные, отключаемые
Режиссер: Антуан Фукуа / Antoine Fuqua
В ролях: Дензел Вашингтон, Мартон Чокаш, Хлоя Грейс Морец, Дэвид Харбор, Хейли Беннетт, Билл Пуллман, Мелисса Лео, Дэвид Мюнье, Джонни Скуртис, Алекс Видов
Описание: Заступившись за едва знакомую девушку, герой вынужден вступить в неравную схватку с бандитами и ЦРУ-шными оборотнями в погонах. Финал у этой войны был бы плачевно предсказуем, не будь он отставной спецназовец, который только начал жизнь с чистого листа...

Качество: HDRip (Рип с BDRip 1080p)
Формат: MP4
Видео: AVC, 960x400 (2.40:1), 1153 kbps, 23.976 fps
Аудио 1: Русский, AAC, 2 ch, 48 kHz, 128 kbps [Dub, BD CEE]
Аудио 2: Английский, AAC, 2 ch, 48 kHz, 128 kbps [Original]
Фильм основан на телесериале «Уравнитель» (1985-1989). Шоу было настолько популярным, что люди на улице подходили к исполнителю главной роли Эдварду Вудворду и просили его помочь – не как актера, а как «бывшего тайного агента».
Мелисса Лео ранее снималась в сериале «Уравнитель» (1985-1989).
Первоначально планировалось, что Роберта МакКолла сыграет Рассел Кроу.
Роль Терри была изначально написана для более взрослой актрисы, но Хлоя Грейс Морец так сильно впечатлила режиссера, что роль переписали под нее.
Практически все боевые сцены Дензел Вашингтон исполнил самостоятельно.
Когда герой Дэнзела Вашингтона покидает дом главаря русской мафии, во дворе мы видим автомобили с номерами Евросоюза, хотя действие происходит в Москве.
x264 [info]: frame I:1855 Avg QP:12.61 size: 57443
x264 [info]: frame P:41764 Avg QP:16.35 size: 13954
x264 [info]: frame B:146340 Avg QP:19.58 size: 3094

x264 [total]: encoded 189959 frames, 9.28 fps, 1153.17 kb/s
General
Complete name : [VIDEO] The.Equalizer.2014.BDRip.x264.960x(semen_52-TNC).mp4
Format : MPEG-4
Format profile : Base Media
Codec ID : isom
File size : 1.31 GiB
Duration : 2h 12mn
Overall bit rate mode : Variable
Overall bit rate : 1 421 Kbps
Movie name : [VIDEO] The Equalizer 2014 BDRip x264 960x(semen_52-TNC)
ContentType : Short Film
Encoded date : UTC 2014-12-23 18:51:11
Tagged date : UTC 2014-12-23 18:54:16
Writing application : MkvToMp4 version: 0.224 (x64)
Comment : Rip by semen_52-TNC

Video
ID : 1
Format : AVC
Format/Info : Advanced Video Codec
Format profile : [email protected]
Format settings, CABAC : Yes
Format settings, ReFrames : 8 frames
Codec ID : avc1
Codec ID/Info : Advanced Video Coding
Duration : 2h 12mn
Bit rate : 1 153 Kbps
Maximum bit rate : 13.1 Mbps
Width : 960 pixels
Height : 400 pixels
Display aspect ratio : 2.40:1
Frame rate mode : Constant
Frame rate : 23.976 fps
Color space : YUV
Chroma subsampling : 4:2:0
Bit depth : 8 bits
Scan type : Progressive
Bits/(Pixel*Frame) : 0.125
Stream size : 1.06 GiB (81%)
Writing library : x264 core 130 r2273 b3065e6
Encoding settings : cabac=1 / ref=8 / deblock=1:-3:-3 / analyse=0x3:0x133 / me=esa / subme=9 / psy=1 / psy_rd=1.00:0.15 / mixed_ref=1 / me_range=32 / chroma_me=1 / trellis=2 / 8x8dct=1 / cqm=0 / deadzone=21,11 / fast_pskip=0 / chroma_qp_offset=-3 / threads=12 / lookahead_threads=2 / sliced_threads=0 / nr=0 / decimate=1 / interlaced=0 / bluray_compat=0 / constrained_intra=0 / bframes=10 / b_pyramid=2 / b_adapt=2 / b_bias=0 / direct=1 / weightb=1 / open_gop=0 / weightp=2 / keyint=250 / keyint_min=25 / scenecut=40 / intra_refresh=0 / rc_lookahead=60 / rc=crf / mbtree=1 / crf=17.0 / qcomp=0.60 / qpmin=0 / qpmax=69 / qpstep=4 / ip_ratio=1.40 / aq=1:0.90
Language : English
Encoded date : UTC 2014-12-23 18:51:11
Tagged date : UTC 2014-12-23 18:52:08

Audio #1
ID : 2
Format : AAC
Format/Info : Advanced Audio Codec
Format profile : LC
Codec ID : 40
Duration : 2h 12mn
Bit rate mode : Variable
Bit rate : 128 Kbps
Maximum bit rate : 135 Kbps
Channel(s) : 2 channels
Channel positions : Front: L R
Sampling rate : 48.0 KHz
Compression mode : Lossy
Stream size : 121 MiB (9%)
Title : Dub
Language : Russian
Encoded date : UTC 2014-12-23 18:51:28
Tagged date : UTC 2014-12-23 18:52:08

Audio #2
ID : 3
Format : AAC
Format/Info : Advanced Audio Codec
Format profile : LC
Codec ID : 40
Duration : 2h 12mn
Bit rate mode : Variable
Bit rate : 128 Kbps
Maximum bit rate : 135 Kbps
Channel(s) : 2 channels
Channel positions : Front: L R
Sampling rate : 48.0 KHz
Compression mode : Lossy
Stream size : 121 MiB (9%)
Title : Original
Language : English
Encoded date : UTC 2014-12-23 18:51:54
Tagged date : UTC 2014-12-23 18:52:08

Text #1
ID : 4
Format : Timed Text
Muxing mode : sbtl
Codec ID : tx3g
Duration : 2h 7mn
Bit rate mode : Variable
Bit rate : 1 bps
Stream size : 630 Bytes (0%)
Title : Forced
Language : Russian
Encoded date : UTC 2014-12-23 18:52:08
Tagged date : UTC 2014-12-23 18:52:08

Text #2
ID : 5
Format : Timed Text
Muxing mode : sbtl
Codec ID : tx3g
Duration : 2h 6mn
Bit rate mode : Variable
Bit rate : 58 bps
Stream size : 53.4 KiB (0%)
Title : Full
Language : Russian
Encoded date : UTC 2014-12-23 18:52:08
Tagged date : UTC 2014-12-23 18:52:08


Трекер:  [ 23-Дек-2014 23:00 ]

  

Скачать .torrent

Размер .torrent файла 13 KB


Размер: 1.31 GB
Хэш (hash) релиза: 82538a5d5d79b263c68b59e8039ea68189863eaa

Еще никто не оставлял запись к записи скачать торрент [VIDEO] Великий уравнитель The Equalizer . Будь первым!

!Обратная связь