Nigel Agyekumhene | RV: Férias no Trailer Assistir RV: Férias no Trailer 720p Dublado/Legendado Online Bob Munro (Robin Williams) está estressado de tanto trabalhar. Decidido a descansar, ele quer levar sua esposa Jamie (Cheryl Hines) e seus filhos Cassie (JoJo) e Carl (Josh Hutcherson) para uma viagem. Após prometer levá-los ao Havaí, Bob decide mudar os planos sem comunicá-los e decide viajar pelo Colorado em um trailer. Jamie, ... | Oushitsu Kyoushi Haine

Скачать через торрент музыку Geinoh Yamashirogumi - Symphonic Suite Akira бесплатно без регистрации torrent

Статистика раздачи
Размер:  384 MB   |    Зарегистрирован:  3 года 6 месяцев   |    .torrent скачан:  40 раз   |   
Раздают:  1  
   
загрузка...
 
Автор Сообщение

Galfimbul

avatar Galfimbul


Geinoh Yamashirogumi / Symphonic Suite Akira

Жанр: Soundtrack
Композитор: Geinoh Yamashirogumi
Год выпуска: 1988 г.
Издатель (лейбл): Invitation
Номер по каталогу: VDR-1532
Страна: Япония

Аудио кодек: FLAC (*.flac)
Тип рипа: image+.cue
Режим рипа: test & copy
Битрейт аудио: lossless
Продолжительность: 01:09:32

Pелизер: sewerok
Наличие сканов в содержимом раздачи: нет

Треклист:
01. Kaneda [0:03:10.53]
02. Battle Against Crown [0:03:36.70]
03. Winds Over The Neo-Tokyo [0:02:48.07]
04. Tetsuo [0:10:18.35]
05. Dolls' Polyphony [0:02:55.20]
06. Shohmyoh [0:10:11.08]
07. Mutation [0:04:49.67]
08. Exodus From The Underground Fortress [0:03:18.50]
09. Illusion [0:13:56.65]
10. Requiem [0:14:26.50]
Exact Audio Copy V1.0 beta 3 from 29. August 2011

EAC extraction logfile from 21. December 2014, 17:53

Geinoh Yamashirogumi / Symphonic Suite Akira

Used drive : TSSTcorpCD/DVDW TS-L632D Adapter: 0 ID: 0

Read mode : SecureUtilize accurate stream : YesDefeat audio cache : YesMake use of C2 pointers : No

Read offset correction : 6Overread into Lead-In and Lead-Out : NoFill up missing offset samples with silence : YesDelete leading and trailing silent blocks : NoNull samples used in CRC calculations : YesUsed interface : Native Win32 interface for Win NT & 2000

Used output format : User Defined EncoderSelected bitrate : 896 kBit/sQuality : HighAdd ID3 tag : NoCommand line compressor : C:\Program Files (x86)\Exact Audio Copy\Flac\flac.exeAdditional command line options : -8 -V -T "Date=%year%" -T "Genre=%genre%" -T "COMMENT=ripped by sewerok®" %source%

TOC of the extracted CD

Track | Start | Length | Start sector | End sector --------------------------------------------------------- 1 | 0:00.37 | 3:10.53 | 37 | 14339 2 | 3:11.15 | 3:36.70 | 14340 | 30609 3 | 6:48.10 | 2:48.07 | 30610 | 43216 4 | 9:36.17 | 10:18.35 | 43217 | 89601 5 | 19:54.52 | 2:55.20 | 89602 | 102746 6 | 22:49.72 | 10:11.08 | 102747 | 148579 7 | 33:01.05 | 4:49.67 | 148580 | 170321 8 | 37:50.72 | 3:18.50 | 170322 | 185221 9 | 41:09.47 | 13:56.65 | 185222 | 247986 10 | 55:06.37 | 14:26.50 | 247987 | 312986

Range status and errors

Selected range

Filename D:\Geinoh Yamashirogumi - Symphonic Suite Akira [1988](Invitation VDR-1532 Limited Edition Japan)\Geinoh Yamashirogumi - Symphonic Suite Akira.wav

Peak level 100.0 % Extraction speed 2.0 X Range quality 99.9 % Test CRC 5491C8B3 Copy CRC 5491C8B3 Copy OK

No errors occurred

AccurateRip summary

Track 1 accurately ripped (confidence 9) [77934567] (AR v2)Track 2 accurately ripped (confidence 9) [4F974D0B] (AR v2)Track 3 accurately ripped (confidence 9) [06D70F63] (AR v2)Track 4 accurately ripped (confidence 8) [987AA450] (AR v2)Track 5 accurately ripped (confidence 9) [A588EE44] (AR v2)Track 6 accurately ripped (confidence 9) [8E7B4C96] (AR v2)Track 7 accurately ripped (confidence 9) [4EA770BE] (AR v2)Track 8 accurately ripped (confidence 9) [586EF359] (AR v2)Track 9 accurately ripped (confidence 9) [006F6FF4] (AR v2)Track 10 accurately ripped (confidence 9) [BE358D6E] (AR v2)

All tracks accurately ripped

End of status report

---- CUETools DB Plugin V2.1.4

[CTDB TOCID: EaAbSou3qan.qA4O.U2yCj5D5_0-] foundSubmit result: EaAbSou3qan.qA4O.U2yCj5D5_0- has been confirmedTrack | CTDB Status 1 | (5/6) Accurately ripped 2 | (4/6) Accurately ripped 3 | (4/6) Accurately ripped 4 | (4/6) Accurately ripped 5 | (4/6) Accurately ripped 6 | (5/6) Accurately ripped 7 | (4/6) Accurately ripped 8 | (3/6) Accurately ripped 9 | (2/6) Accurately ripped 10 | (1/6) Accurately ripped

==== Log checksum 438C74A1ECC4AF988C3959DB3AE6AB7647FEDE89EA3AC1F20F4F64B82153F9E1 ====
[CUETools log; Date: 21.12.2014 17:54:32; Version: 2.1.4]Pregap length 00:00:37.[CTDB TOCID: EaAbSou3qan.qA4O.U2yCj5D5_0-] found.Track | CTDB Status 1 | (6/7) Accurately ripped 2 | (5/7) Accurately ripped 3 | (5/7) Accurately ripped 4 | (5/7) Accurately ripped 5 | (5/7) Accurately ripped 6 | (6/7) Accurately ripped 7 | (5/7) Accurately ripped 8 | (4/7) Accurately ripped 9 | (3/7) Accurately ripped 10 | (2/7) Accurately ripped[AccurateRip ID: 00148873-00ad30fc-83104d0a] found.Track [ CRC | V2 ] Status 01 [49fc17c9|77934567] (009+009/113) Accurately ripped 02 [9efc4c5a|4f974d0b] (009+009/112) Accurately ripped 03 [034ab7a7|06d70f63] (009+009/111) Accurately ripped 04 [1b59d0d1|987aa450] (008+008/104) Accurately ripped 05 [61a1b7c2|a588ee44] (009+009/110) Accurately ripped 06 [94c1fc95|8e7b4c96] (008+009/106) Accurately ripped 07 [da5bbf65|4ea770be] (009+009/108) Accurately ripped 08 [dca58c41|586ef359] (009+009/109) Accurately ripped 09 [206ae9d2|006f6ff4] (009+009/105) Accurately ripped 10 [de9eff78|be358d6e] (008+009/100) Accurately rippedOffsetted by -578: 01 [344069d6] (003/113) Accurately ripped 02 [01108be5] (003/112) Accurately ripped 03 [150c5331] (003/111) Accurately ripped 04 [bb450bb3] (003/104) Accurately ripped 05 [89805c70] (003/110) Accurately ripped 06 [9dac4974] (003/106) Accurately ripped 07 [7f5f9582] (003/108) Accurately ripped 08 [6c9b50f1] (003/109) Accurately ripped 09 [d311ff3d] (000/105) No match (V2 was not tested) 10 [b1e887b6] (000/100) No matchOffsetted by -566: 01 [1540a312] (002/113) Accurately ripped 02 [8401f7fc] (002/112) Accurately ripped 03 [2aa19566] (002/111) Accurately ripped 04 [e343cae2] (002/104) Accurately ripped 05 [535926d5] (002/110) Accurately ripped 06 [37a7af44] (002/106) Accurately ripped 07 [aea78f3e] (002/108) Accurately ripped 08 [e818302d] (002/109) Accurately ripped 09 [b0ffe0a8] (000/105) No match (V2 was not tested) 10 [2b4436b3] (000/100) No matchOffsetted by -561: 01 [f275bcd3] (004/113) Accurately ripped 02 [f9aa019d] (004/112) Accurately ripped 03 [c920dbad] (004/111) Accurately ripped 04 [3e401241] (004/104) Accurately ripped 05 [677a9078] (004/110) Accurately ripped 06 [a760838e] (004/106) Accurately ripped 07 [830336f5] (004/108) Accurately ripped 08 [8636e286] (004/109) Accurately ripped 09 [3ab50d25] (000/105) No match (V2 was not tested) 10 [1cb7d5d5] (000/100) No matchOffsetted by 98: 01 [80ca64c7] (022/113) Accurately ripped 02 [06f77618] (022/112) Accurately ripped 03 [ea4d3edd] (021/111) Accurately ripped 04 [46da1537] (021/104) Accurately ripped 05 [6f6bd190] (021/110) Accurately ripped 06 [364637f0] (021/106) Accurately ripped 07 [6f4e302a] (021/108) Accurately ripped 08 [fcecf4e1] (021/109) Accurately ripped 09 [b7df83bf] (000/105) No match (V2 was not tested) 10 [0a9c1f45] (000/100) No matchOffsetted by 2723: 01 [63f3688a] (023/113) Accurately ripped 02 [32bb87d5] (022/112) Accurately ripped 03 [22cccb3e] (022/111) Accurately ripped 04 [398bdcc1] (021/104) Accurately ripped 05 [97ed4ccc] (021/110) Accurately ripped 06 [4e0b74cc] (020/106) Accurately ripped 07 [7e4107a3] (021/108) Accurately ripped 08 [f9911cf6] (021/109) Accurately ripped 09 [84bb5802] (000/105) No match (V2 was not tested) 10 [1cfa9c48] (000/100) No match

Track Peak [ CRC32 ] [W/O NULL] [ LOG ] -- 100,0 [5491C8B3] [395118EE] CRC32 01 100,0 [5CA21810] [9AE5694C] 02 100,0 [A95BF95C] [69032FB8] 03 100,0 [2D0668ED] [4D4E8FF3] 04 100,0 [1818B426] [E021457E] 05 100,0 [D2E291BC] [73B37C7A] 06 100,0 [9CBD3D17] [7D3682E8] 07 100,0 [1E67F359] [9A772F49] 08 100,0 [C420DC94] [86F78AB0] 09 100,0 [D74362DB] [D588EA5B] 10 100,0 [8A842C62] [3BF63DE9]


Трекер:  [ 21-Дек-2014 20:30 ]

  

Скачать .torrent

Размер .torrent файла 16 KB


Размер: 384 MB
Хэш (hash) релиза: 4c581a567c6b0aecf02f366a12660d05ad9d421c

Еще никто не оставлял запись к записи скачать торрент Geinoh Yamashirogumi - Symphonic Suite Akira . Будь первым!

!Обратная связь