Download Torrent | film de Mike Nichols | 7 jours pas plus streaming

Скачать через торрент [VIDEO] Исчезнувшая Gone Girl бесплатно русская версия torrent активатор

Статистика раздачи
Размер:  1.24 GB   |    Зарегистрирован:  3 года 6 месяцев   |    .torrent скачан:  1439 раз   |   
Раздают:  1  
   
загрузка...
 
Автор Сообщение

Galfimbul

avatar Galfimbul


Исчезнувшая
Gone Girl

Год выпуска: 2014
Страна: США (Artemple - Hollywood, New Regency Pictures, Pacific Standard, Regency Enterprises)
Жанр: Триллер, драма, детектив, экранизация
Продолжительность: 02:29:01
Перевод: Профессиональный (полное дублирование)
Оригинальная дорожка: Нет
Cубтитры: Нет
Режиссер: Дэвид Финчер / David Fincher
В ролях: Розамунд Пайк, Бен Аффлек, Нил Патрик Харрис, Мисси Пайл, Скут МакНэйри, Кэрри Кун, Тайлер Перри, Ли Норрис, Бойд Холбрук, Патрик Фьюджит, Эмили Ратажковски, Кейси Уилсон, Лола Керк, Дэвид Кленнон
Описание: Все было готово для празднования пятилетнего юбилея супружеской жизни, когда вдруг необъяснимо пропал один из виновников торжества. Остались следы борьбы в доме, кровь, которую явно пытались стереть, — и цепочка «ключей» в игре под названием «охота за сокровищами»; красивая, умная и невероятно изобретательная жена ежегодно устраивала ее для своего обожаемого мужа. И похоже, что эти «ключи» — размещенные ею тут и там странные записки и не менее странные безделушки — дают единственный шанс пролить свет на судьбу исчезнувшей. Вот только не придется ли «охотнику» в процессе поиска раскрыть миру и пару-тройку собственных малосимпатичных тайн?

Качество: BDRip (Рип с [url=...4895135]Blu-Ray Disc 1080p[/url])
Формат: MP4
Видео: AVC, 960x400 (2.40:1), 1059 kbps, 23.976 fps
Аудио: Русский, AAC, 2 ch, 48 kHz, 128 kbps [Dub]
Фильм снят по мотивам романа Гиллиан Флинн «Исчезнувшая» (Gone Girl, 2012).
День рождения Бена Аффлека совпадает с днем рождения его персонажа Ника — 15 августа.
Бен Аффлек отложил работу над собственным фильмом ради того, чтобы поработать с Дэвидом Финчером. Аффлек сказал: «Он единственный режиссер из всех, что я знаю, который может выполнить чью угодно работу лучше тех людей, которые ей занимаются». Однажды на съемочной площадке Аффлек слегка изменил настройки камеры, поспорив с членом съемочной группы, что Финчер этого не заметит. Но когда начались съемки, Финчер сразу спросил – почему изображение выглядит немного тусклым.
Риз Уизерспун, Шарлиз Терон, Натали Портман, Эмили Блант, Руни Мара, Оливия Уайлд, Эбби Корниш и Джулианна Хаф рассматривались на роль Эми Данн.
Это первый полнометражный фильм, снятый полностью в разрешении 6k (6144 x 3160).
Несмотря на то что события фильма развиваются в Северном Картаже (штат Миссури), съемки проходили в Кейп-Джирардо (штат Миссури). Кастинг статистов прошел в Rose Theatre в Университете штата в Юго-Восточном Миссури, который также расположен в Кейп-Джирардо.
Одна из сцен фильма происходит в Миссури, в заброшенном торговом центре, ставшем своего рода Меккой для бродяг. Эти сцены снимались в Лос-Анджелесе: наружные съемки проходили возле закрытого магазина Montgomery Ward, а интерьеры снимались в огромном центре Hawthorne Mall.
Автор романа-первоисточника Гиллиан Флинн написала несколько вариантов финала сценария фильма, чтобы сохранить интерес читателей и зрителей, а также чтобы избежать спойлеров.
В одном из эпизодов фильма Нил сравнивает Эми с Элизабет Беннет — главной героиней романа Джейн Остин «Гордость и предубеждение». Розамунд Пайк, сыгравшая роль Эми, также сыграла сестру Элизабет — Джейн Беннет в постановке 2005 года.
Готовясь к съемкам, Бен Аффлек разыскал нескольких мужчин, которые были обвинены в убийстве своих жен и осуждены, и побеседовал с ними. В частности, собеседником Аффлека стал Скотт Петерсон, ожидающий исполнения смертного приговора в калифорнийской тюрьме.
В одном из эпизодов, действие которого, согласно сюжету, разворачивается в 2010 году, герой Бена Аффлека играет в видеоигру. Он никак не мог играть в эту игру, т. к. она вышла только в 2011 году. Речь идет о «Battlefield 3».
x264 [info]: frame I:2454 Avg QP:12.21 size: 66691
x264 [info]: frame P:45192 Avg QP:15.67 size: 13193
x264 [info]: frame B:166746 Avg QP:19.13 size: 2544

x264 [total]: encoded 214392 frames, 9.28 fps, 1059.36 kb/s
General
Complete name : [VIDEO] Gone.Girl.2014.BDRip.x264.960x(semen_52-TNC).mp4
Format : MPEG-4
Format profile : Base Media
Codec ID : isom
File size : 1.24 GiB
Duration : 2h 29mn
Overall bit rate mode : Variable
Overall bit rate : 1 195 Kbps
Movie name : [VIDEO] Gone Girl 2014 BDRip x264 960x(semen_52-TNC)
ContentType : Short Film
Encoded date : UTC 2014-12-20 15:43:55
Tagged date : UTC 2014-12-20 15:45:42
Writing application : MkvToMp4 version: 0.224 (x64)
Comment : Rip by semen_52-TNC

Video
ID : 1
Format : AVC
Format/Info : Advanced Video Codec
Format profile : [email protected]
Format settings, CABAC : Yes
Format settings, ReFrames : 8 frames
Codec ID : avc1
Codec ID/Info : Advanced Video Coding
Duration : 2h 29mn
Bit rate : 1 059 Kbps
Maximum bit rate : 11.8 Mbps
Width : 960 pixels
Height : 400 pixels
Display aspect ratio : 2.40:1
Frame rate mode : Constant
Frame rate : 23.976 fps
Color space : YUV
Chroma subsampling : 4:2:0
Bit depth : 8 bits
Scan type : Progressive
Bits/(Pixel*Frame) : 0.115
Stream size : 1.10 GiB (89%)
Writing library : x264 core 130 r2273 b3065e6
Encoding settings : cabac=1 / ref=8 / deblock=1:-3:-3 / analyse=0x3:0x133 / me=esa / subme=9 / psy=1 / psy_rd=1.00:0.10 / mixed_ref=1 / me_range=32 / chroma_me=1 / trellis=2 / 8x8dct=1 / cqm=0 / deadzone=21,11 / fast_pskip=0 / chroma_qp_offset=-3 / threads=12 / lookahead_threads=2 / sliced_threads=0 / nr=0 / decimate=1 / interlaced=0 / bluray_compat=0 / constrained_intra=0 / bframes=9 / b_pyramid=2 / b_adapt=2 / b_bias=0 / direct=1 / weightb=1 / open_gop=0 / weightp=2 / keyint=250 / keyint_min=25 / scenecut=40 / intra_refresh=0 / rc_lookahead=60 / rc=crf / mbtree=1 / crf=16.5 / qcomp=0.60 / qpmin=0 / qpmax=69 / qpstep=4 / ip_ratio=1.40 / aq=1:0.90
Language : English
Encoded date : UTC 2014-12-20 15:43:55
Tagged date : UTC 2014-12-20 15:44:21

Audio
ID : 2
Format : AAC
Format/Info : Advanced Audio Codec
Format profile : LC
Codec ID : 40
Duration : 2h 29mn
Bit rate mode : Variable
Bit rate : 128 Kbps
Maximum bit rate : 135 Kbps
Channel(s) : 2 channels
Channel positions : Front: L R
Sampling rate : 48.0 KHz
Compression mode : Lossy
Stream size : 136 MiB (11%)
Title : Dub
Language : Russian
Encoded date : UTC 2014-12-20 15:44:13
Tagged date : UTC 2014-12-20 15:44:21


Трекер:  [ 20-Дек-2014 20:00 ]

  

Скачать .torrent

Размер .torrent файла 13 KB


Размер: 1.24 GB
Хэш (hash) релиза: 434201a034379fbeb02a419a30dfbb7a7a86b624

Еще никто не оставлял запись к записи скачать торрент [VIDEO] Исчезнувшая Gone Girl . Будь первым!

!Обратная связь