Warren Jeffs: Prophet ... | @kafa_zehir; | Семейный

Скачать через торрент [MULT] Приключения поросёнка Фунтика Серии: 1 - 4 из 4 бесплатно русская версия torrent активатор

Статистика раздачи
Размер:  235 MB   |    Зарегистрирован:  3 года 7 месяцев   |    .torrent скачан:  60 раз   |   
Раздают:  1  
   
загрузка...
 
Автор Сообщение

Galfimbul

avatar Galfimbul


Приключения поросёнка Фунтика



Год выпуска: 1986-1988
Страна: СССР, творческое объединение "Экран"
Жанр: Мультфильм, приключения
Продолжительность: ~ 00:10:00 х 4
Перевод: Не требуется
Cубтитры: нет
Режиссер: Анатолий Солин
В ролях: Зоя Пыльнова, Армен Джигарханян, Ирина Муравьёва, Ольга Аросева, Спартак Мишулин, Юрий Волынцев, Анатолий Баранцев, Георгий Бурков, Борис Рунге, Раиса Мухаметшина
Описание: Певая часть: Фунтик сбежал от своей хозяйки, госпожи Беладонны, потому что не хотел обманывать детей. Хозяйка же думала только о наживе и безжалостно преследовала поросенка, который мог приносить ей неплохой доход

Вторая часть: Об отважном и талантливом поросенке Фунтике, сбежавшем от коварной хозяйки универмага «Слезы ребенка» госпожи Белладонны. Фильм второй. О том, как злая и жадная хозяйка универмага «Слеза ребенка» госпожа Белладонна пыталась выкрасть у клоуна Фокуса-Мокуса сбежавшего от нее поросенка Фунтика.

Третья часть: Переодетая в мужской костюм Белладонна пытается похитить Фунтика. Ей помогают тупой начальник полиции Фокстрот и суетливые сыщики Добер и Пинчер.

Четвёртая часть: О приключениях поросенка Фунтика в цирке...



Качество: SATRip
Формат: MP4
Видео: AVC at 700 Kbps, 480 x 360 (1.324) at 25.000 fps
Аудио: AAC at 128 Kbps, 2 channels, 48.0 KHz
GeneralComplete name : G:\Приключения поросёнка Фунтика (1986-1988) 640х\01. Неуловимый Фунтик (1986).mp4Format : MPEG-4Format profile : Base MediaCodec ID : isomFile size : 60.8 MiBDuration : 10mn 10sOverall bit rate mode : VariableOverall bit rate : 836 KbpsMovie name : 01 Неуловимый Фунтик (1986) [rutracker]Genre : МультфильмEncoded date : UTC 2014-12-16 12:24:20Tagged date : UTC 2014-12-16 12:24:22Writing application : MkvToMp4 version: 0.224 (x64)Comment : 01 Неуловимый Фунтик (1986) [rip by Alien.09]stik : 9iTunEXTC : ru-movie|12+|200|

VideoID : 1Format : AVCFormat/Info : Advanced Video CodecFormat profile : [email protected] settings, CABAC : YesFormat settings, ReFrames : 3 framesCodec ID : avc1Codec ID/Info : Advanced Video CodingDuration : 10mn 9sBit rate : 700 KbpsMaximum bit rate : 2 217 KbpsWidth : 480 pixelsHeight : 360 pixelsDisplay aspect ratio : 4:3Frame rate mode : ConstantFrame rate : 25.000 fpsColor space : YUVChroma subsampling : 4:2:0Bit depth : 8 bitsScan type : ProgressiveBits/(Pixel*Frame) : 0.162Stream size : 50.9 MiB (84%)Writing library : x264 core 142 r2479M dd79a61Encoding settings : cabac=1 / ref=3 / deblock=1:0:0 / analyse=0x1:0x131 / me=hex / subme=7 / psy=1 / psy_rd=1,00:0,20 / mixed_ref=1 / me_range=8 / chroma_me=1 / trellis=1 / 8x8dct=0 / cqm=0 / deadzone=21,11 / fast_pskip=1 / chroma_qp_offset=-3 / threads=10 / lookahead_threads=1 / sliced_threads=0 / nr=0 / decimate=1 / interlaced=0 / bluray_compat=0 / constrained_intra=0 / bframes=3 / b_pyramid=0 / b_adapt=2 / b_bias=0 / direct=3 / weightb=1 / open_gop=0 / weightp=0 / keyint=250 / keyint_min=25 / scenecut=40 / intra_refresh=0 / rc_lookahead=250 / rc=2pass / mbtree=1 / bitrate=700 / ratetol=1,0 / qcomp=0,60 / qpmin=10 / qpmax=51 / qpstep=4 / cplxblur=20,0 / qblur=0,5 / vbv_maxrate=5000 / vbv_bufsize=1835 / nal_hrd=none / filler=0 / ip_ratio=1,40 / aq=1:1,00Language : EnglishEncoded date : UTC 2014-12-16 12:24:20Tagged date : UTC 2014-12-16 12:24:21

AudioID : 2Format : AACFormat/Info : Advanced Audio CodecFormat profile : LCCodec ID : 40Duration : 10mn 10sBit rate mode : VariableBit rate : 128 KbpsMaximum bit rate : 129 KbpsChannel(s) : 2 channelsChannel positions : Front: L RSampling rate : 48.0 KHzCompression mode : LossyStream size : 9.31 MiB (15%)Language : RussianEncoded date : UTC 2014-12-16 12:24:21Tagged date : UTC 2014-12-16 12:24:21


Трекер:  [ 16-Дек-2014 17:30 ]

  

Скачать .torrent

Размер .torrent файла 19 KB


Размер: 235 MB
Хэш (hash) релиза: e99f395cf6686aacf2ee8bfd964646e8e32068f4

Еще никто не оставлял запись к записи скачать торрент [MULT] Приключения поросёнка Фунтика Серии: 1 - 4 из 4 . Будь первым!

!Обратная связь