chapter 26 : Awakening Demon | Inazuma Eleven Go | Pointless S19E46 720p iP WEB-DL AAC2 0 H 264-BTW 11 minutes

Скачать через торрент [VIDEO] Хоббит: Дилогия The Hobbit: Dilogy бесплатно русская версия torrent активатор

Статистика раздачи
Размер:  2.1 GB   |    Зарегистрирован:  3 года 8 месяцев   |    .torrent скачан:  94 раза   |   
Раздают:  1  
   
загрузка...
 
Автор Сообщение

Galfimbul

avatar Galfimbul


Хоббит: Нежданное путешествие / The Hobbit: An Unexpected Journey



Год выпуска: 2012
Страна: Новая Зеландия, США
Жанр: фэнтези, приключения
Продолжительность: 03:02:30
Перевод: Профессиональный (дублированный) Blu-ray CEE
Cубтитры: английские
Доп. информация о субтитрах: хардсаб, на речь эльфов и орков
Режиссер: Питер Джексон / Peter Jackson
В ролях: Мартин Фриман, Иэн МакКеллен, Ричард Армитедж, Джеймс Несбитт, Кен Стотт, Грэм МакТавиш, Дин О’Горман, Эйдан Тернер, Джед Брофи, Марк Хэдлоу
Описание: Фильм повествует о путешествии Бильбо Бэггинса, который пускается в грандиозный поход, целью которого является отвоевание утраченного королевства гномов Эребор у зловещего дракона Смауга. Совершенно неожиданно с хоббитом налаживает контакт волшебник Гэндальф Серый. Так Бильбо находит себя, присоединяясь к компании тринадцати гномов, возглавляемых легендарным воином, Торином Дубощитом. Их путешествие проляжет через Дикий Край, через предательские земли, населенные гоблинами и орками, смертоносными варгами и гигантскими пауками, народом, меняющим шкуры, и волшебниками.

И хотя их цель находится на Востоке среди пустошей Одинокой Горы, сначала им придется выбраться из туннелей гоблинов, где Бильбо встретит существо, которое изменит его жизнь навсегда... Голлума.

Здесь, один на один с Голлумом, на берегу подземного озера, непритязательный Бильбо Бэггинс обнаружит не только скрытые в глубине души хитрость и отвагу, которые удивят даже его, но и завладеет «прелестным» колечком Голлума, которое обладает нежданными и полезными свойствами... Простое золотое кольцо, c которым связана судьба всего Средиземья, нитями, о которых Бильбо не мог даже вообразить.



Качество: HDRip (рип с BDRip 1080p)
Формат: MP4
Видео: AVC at 679 Kbps, 640 x 272 (2.400) at 23.976 fps
Аудио: AAC at 128 Kbps, 2 channels, 48.0 KHz
GeneralComplete name : G:\Хоббит. Дилогия (2012-2013) Extended Edition 640х\Хоббит. Нежданное путешествие (2012) 640х_new.mp4Format : MPEG-4Format profile : Base MediaCodec ID : isomFile size : 1.04 GiBDuration : 3h 2mnOverall bit rate mode : VariableOverall bit rate : 814 KbpsMovie name : The Hobbit: An Unexpected Journey (2012) [Extended Edition] [by Alien.09]Genre : FantasyEncoded date : UTC 2014-12-15 21:47:41Tagged date : UTC 2014-12-15 21:48:44Writing application : MkvToMp4 version: 0.224 (x64)Comment : The Hobbit: An Unexpected Journey (2012) Extended Edition [rip by Alien.09]stik : 9iTunEXTC : ru-movie|12+|200|

VideoID : 1Format : AVCFormat/Info : Advanced Video CodecFormat profile : [email protected] settings, CABAC : YesFormat settings, ReFrames : 3 framesCodec ID : avc1Codec ID/Info : Advanced Video CodingDuration : 3h 2mnBit rate : 679 KbpsMaximum bit rate : 3 507 KbpsWidth : 640 pixelsHeight : 272 pixelsDisplay aspect ratio : 2.40:1Frame rate mode : ConstantFrame rate : 23.976 fpsColor space : YUVChroma subsampling : 4:2:0Bit depth : 8 bitsScan type : ProgressiveBits/(Pixel*Frame) : 0.163Stream size : 886 MiB (83%)Writing library : x264 core 128 r2216M 198a7eaEncoding settings : cabac=1 / ref=3 / deblock=1:0:0 / analyse=0x1:0x131 / me=hex / subme=7 / psy=1 / psy_rd=1.00:0.20 / mixed_ref=1 / me_range=16 / chroma_me=1 / trellis=1 / 8x8dct=0 / cqm=0 / deadzone=21,11 / fast_pskip=1 / chroma_qp_offset=-3 / threads=4 / lookahead_threads=1 / sliced_threads=0 / nr=0 / decimate=1 / interlaced=0 / bluray_compat=0 / constrained_intra=0 / bframes=3 / b_pyramid=0 / b_adapt=2 / b_bias=0 / direct=3 / weightb=1 / open_gop=0 / weightp=0 / keyint=230 / keyint_min=23 / scenecut=40 / intra_refresh=0 / rc_lookahead=40 / rc=2pass / mbtree=1 / bitrate=679 / ratetol=1.0 / qcomp=0.60 / qpmin=10 / qpmax=51 / qpstep=4 / cplxblur=20.0 / qblur=0.5 / vbv_maxrate=5000 / vbv_bufsize=1835 / nal_hrd=none / ip_ratio=1.40 / aq=1:1.00Language : EnglishEncoded date : UTC 2014-12-15 21:47:41Tagged date : UTC 2014-12-15 21:47:58

AudioID : 2Format : AACFormat/Info : Advanced Audio CodecFormat profile : LCCodec ID : 40Duration : 3h 2mnBit rate mode : VariableBit rate : 128 KbpsMaximum bit rate : 181 KbpsChannel(s) : 2 channelsChannel positions : Front: L RSampling rate : 48.0 KHzCompression mode : LossyStream size : 167 MiB (16%)Language : RussianEncoded date : UTC 2014-12-15 21:47:54Tagged date : UTC 2014-12-15 21:47:58


Хоббит: Пустошь Смауга / The Hobbit: The Desolation of Smaug



Год выпуска: 2013
Страна: Новая Зеландия, США
Жанр: фэнтези, приключения
Продолжительность: 03:06:37
Перевод: Профессиональный (дублированный) Blu-ray CEE
Cубтитры: английские
Доп. информация о субтитрах: хардсаб, на речь эльфов и орков
Режиссер: Питер Джексон / Peter Jackson
В ролях: Мартин Фриман, Ричард Армитедж, Иэн МакКеллен, Эванджелин Лилли, Орландо Блум, Люк Эванс, Бенедикт Камбербэтч, Ли Пейс, Кен Стотт, Эйдан Тернер
Описание: Продолжение путешествия хоббита Бильбо Бэггинса, волшебника Гэндальфа и 13 отважных гномов. Их компания обязана завершить своё путешествие к Одинокой горе. Там они должны встретиться с величайшей опасностью из всех — созданием куда более ужасающим, чем все их прошлые противники, которое проверит на прочность не только их мужество, но крепость их дружбы и правильность выбранного пути, — драконом Смаугом.



Качество: HDRip (рип с BDRip 1080p)
Формат: MP4
Видео: AVC at 679 Kbps, 640 x 272 (2.400) at 23.976 fps
Аудио: AAC at 128 Kbps, 2 channels, 48.0 KHz
GeneralComplete name : G:\Хоббит. Дилогия (2012-2013) Extended Edition 640х\Хоббит. Пустошь Смауга (2013) 640х_new.mp4Format : MPEG-4Format profile : Base MediaCodec ID : isomFile size : 1.06 GiBDuration : 3h 6mnOverall bit rate mode : VariableOverall bit rate : 814 KbpsMovie name : The Hobbit: The Desolation of Smaug (2013) Extended Edition [rutracker]Genre : FantasyEncoded date : UTC 2014-12-15 21:41:23Tagged date : UTC 2014-12-15 21:42:18Writing application : MkvToMp4 version: 0.224 (x64)Comment : The Hobbit: The Desolation of Smaug (2013) Extended Edition [rip by Alien.09]stik : 9iTunEXTC : ru-movie|12+|200|

VideoID : 1Format : AVCFormat/Info : Advanced Video CodecFormat profile : [email protected] settings, CABAC : YesFormat settings, ReFrames : 3 framesCodec ID : avc1Codec ID/Info : Advanced Video CodingDuration : 3h 6mnBit rate : 679 KbpsMaximum bit rate : 3 720 KbpsWidth : 640 pixelsHeight : 272 pixelsDisplay aspect ratio : 2.40:1Frame rate mode : ConstantFrame rate : 23.976 fpsColor space : YUVChroma subsampling : 4:2:0Bit depth : 8 bitsScan type : ProgressiveBits/(Pixel*Frame) : 0.163Stream size : 906 MiB (83%)Writing library : x264 core 125 r2200M 999b753Encoding settings : cabac=1 / ref=3 / deblock=1:0:0 / analyse=0x1:0x131 / me=hex / subme=7 / psy=1 / psy_rd=1.00:0.20 / mixed_ref=1 / me_range=16 / chroma_me=1 / trellis=1 / 8x8dct=0 / cqm=0 / deadzone=21,11 / fast_pskip=1 / chroma_qp_offset=-3 / threads=4 / lookahead_threads=1 / sliced_threads=0 / nr=0 / decimate=1 / interlaced=0 / bluray_compat=0 / constrained_intra=0 / bframes=3 / b_pyramid=0 / b_adapt=2 / b_bias=0 / direct=3 / weightb=1 / open_gop=0 / weightp=0 / keyint=230 / keyint_min=23 / scenecut=40 / intra_refresh=0 / rc_lookahead=40 / rc=2pass / mbtree=1 / bitrate=679 / ratetol=1.0 / qcomp=0.60 / qpmin=10 / qpmax=51 / qpstep=4 / cplxblur=20.0 / qblur=0.5 / vbv_maxrate=5000 / vbv_bufsize=1835 / nal_hrd=none / ip_ratio=1.40 / aq=1:1.00Language : EnglishEncoded date : UTC 2014-12-15 21:41:23Tagged date : UTC 2014-12-15 21:41:37

AudioID : 2Format : AACFormat/Info : Advanced Audio CodecFormat profile : LCCodec ID : 40Duration : 3h 6mnBit rate mode : VariableBit rate : 128 KbpsMaximum bit rate : 169 KbpsChannel(s) : 2 channelsChannel positions : Front: L RSampling rate : 48.0 KHzCompression mode : LossyStream size : 171 MiB (16%)Language : RussianEncoded date : UTC 2014-12-15 21:41:32Tagged date : UTC 2014-12-15 21:41:37


Трекер:  [ 16-Дек-2014 02:00 ]

  

Скачать .torrent

Размер .torrent файла 11 KB


Размер: 2.1 GB
Хэш (hash) релиза: 6dced32158e4b6e7c899b26dd092be193ef54678

Еще никто не оставлял запись к записи скачать торрент [VIDEO] Хоббит: Дилогия The Hobbit: Dilogy . Будь первым!

!Обратная связь