A season 04 episode 16 | Bizaardvark | Kirby: Right Back ...

Скачать через торрент [VIDEO] Самый опасный человек A Most Wanted Man бесплатно русская версия torrent активатор

Статистика раздачи
Размер:  1.01 GB   |    Зарегистрирован:  3 года 7 месяцев   |    .torrent скачан:  50 раз   |   
Раздают:  1  
   
загрузка...
 
Автор Сообщение

Galfimbul

avatar Galfimbul


Самый опасный человек
A Most Wanted Man

Год выпуска: 2014
Страна: Великобритания, США, Германия (Ink Factory, The, Potboiler Productions, Amusement Park Films)
Жанр: Триллер
Продолжительность: 02:02:23
Перевод: Профессиональный (дублированный)
Оригинальная дорожка: Нет
Cубтитры: Нет
Режиссер: Антон Корбейн / Anton Corbijn
В ролях: Филип Сеймур Хоффман, Григорий Добрыгин, Рэйчел МакАдамс, Уиллем Дефо, Нина Хосс, Робин Райт, Райнер Бок, Хомаюн Эршади, Мехди Дехби, Даниэль Брюль
Описание: Каждая война начинается со страха. Каждое предательство начинается с доверия. Глава секретного подразделения разведки получает задание найти опасного международного беглеца Ису Карпова, которого из симпатии укрывает молодая девушка-адвокат. Когда в погоню вступают разведки других стран, начинается большая шпионская игра, в которой любой может оказаться наживкой или акулой. А национальная безопасность нередко зависит от простых человеческих чувств.

Качество: HDRip (Рип с BDRip 1080p)
Формат: MP4
Видео: AVC, 960x408 (2.35:1), 1047 kbps, 23.976 fps
Аудио: Русский, AAC, 2 ch, 48 kHz, 128 kbps [Dub]
Это экранизация одноименного романа Джона ле Карре, опубликованного в 2008-м году.
22 июля 2008 года была выпущена 9-минутная короткометражка, в которой Джон ле Карре рассказывает о своем романе «Самый опасный человек». Эту короткометражку снял Саймон Ченнинг-Вильямс, который занимался продюсированием экранизации другого романа Джона ле Карре — «Преданный садовник» (2005).
Эми Адамс, Кэри Маллиган и Джессика Честейн рассматривались на роль Аннабель Рихтер.
События фильма разворачиваются в Гамбурге. Джон ле Карре, автор романа, по которому снят фильм, работал на британскую разведку MI5 и MI6 в 1950-х и 1960-х годах. Он работал в Берлине и Гамбурге. Ле Карре был в Берлине во время постройки Берлинской стены. А в Гамбурге он работал одновременно консулом и агентом.
Один из продюсеров этого фильма, Стивен Корнуэлл, является сыном Джона ле Карре. Этот фильм стал их первой совместной работой.
Роман Джона ле Карре, по которому снят фильм, основан на реальной жизни Мурата Курназа, гражданина Турции, легально проживающего в Германии, который был арестован в Пакистане по подозрению в причастности к теракту в США, произошедшему 11 сентября 2001 года. После чего его отправили на американскую военную базу в Кандагаре (Афганистан), а затем в тюрьму в Гуантанамо (Куба), где он пробыл 5 лет.
Режиссер Антон Корбейн снялся в эпизодической роли. Когда по телевизору показывают пресс-конференцию, его можно увидеть сидящим рядом с Хомаюном Эршади (Абдулла).
Специально для роли Аннабель Рихтер Рэйчел МакАдамс научилась разговаривать с немецким акцентом.
Машина, на которой Гюнтер Бахманн ездит в фильме, это W-126 S Mercedes цвета зеленый металлик. Ближе к концу фильма на машине пропадает вмятина на крыле, а также она меняет цвет на синий металлик.
ММКФ, 2014 год
Номинации (1):
Приз за лучший фильм - Золотой «Святой Георгий»
x264 [info]: frame I:1183 Avg QP:14.80 size: 61249
x264 [info]: frame P:35109 Avg QP:18.49 size: 15017
x264 [info]: frame B:139777 Avg QP:21.96 size: 2584

x264 [total]: encoded 176069 frames, 9.48 fps, 1046.70 kb/s
General
Complete name : [VIDEO] A.Most.Wanted.Man.2014.HDRip.x264.960x(semen_52-TNC).mp4
Format : MPEG-4
Format profile : Base Media
Codec ID : isom
File size : 1.01 GiB
Duration : 2h 2mn
Overall bit rate mode : Variable
Overall bit rate : 1 182 Kbps
Movie name : [VIDEO] A Most Wanted Man 2014 HDRip x264 960x(semen_52-TNC)
ContentType : Short Film
Encoded date : UTC 2014-12-14 20:44:49
Tagged date : UTC 2014-12-14 20:45:50
Writing application : MkvToMp4 version: 0.224 (x64)
Comment : Rip by semen_52-TNC

Video
ID : 1
Format : AVC
Format/Info : Advanced Video Codec
Format profile : [email protected]
Format settings, CABAC : Yes
Format settings, ReFrames : 8 frames
Codec ID : avc1
Codec ID/Info : Advanced Video Coding
Duration : 2h 2mn
Bit rate : 1 047 Kbps
Maximum bit rate : 5 262 Kbps
Width : 960 pixels
Height : 408 pixels
Display aspect ratio : 2.35:1
Frame rate mode : Constant
Frame rate : 23.976 fps
Color space : YUV
Chroma subsampling : 4:2:0
Bit depth : 8 bits
Scan type : Progressive
Bits/(Pixel*Frame) : 0.111
Stream size : 916 MiB (89%)
Writing library : x264 core 130 r2273 b3065e6
Encoding settings : cabac=1 / ref=8 / deblock=1:-3:-3 / analyse=0x3:0x133 / me=esa / subme=9 / psy=1 / psy_rd=1.00:0.00 / mixed_ref=1 / me_range=32 / chroma_me=1 / trellis=2 / 8x8dct=1 / cqm=0 / deadzone=21,11 / fast_pskip=0 / chroma_qp_offset=-2 / threads=12 / lookahead_threads=2 / sliced_threads=0 / nr=0 / decimate=1 / interlaced=0 / bluray_compat=0 / constrained_intra=0 / bframes=10 / b_pyramid=2 / b_adapt=2 / b_bias=0 / direct=1 / weightb=1 / open_gop=0 / weightp=2 / keyint=250 / keyint_min=25 / scenecut=40 / intra_refresh=0 / rc_lookahead=60 / rc=crf / mbtree=1 / crf=19.0 / qcomp=0.60 / qpmin=0 / qpmax=69 / qpstep=4 / ip_ratio=1.40 / aq=1:1.00
Language : English
Encoded date : UTC 2014-12-14 20:44:49
Tagged date : UTC 2014-12-14 20:45:10

Audio
ID : 2
Format : AAC
Format/Info : Advanced Audio Codec
Format profile : LC
Codec ID : 40
Duration : 2h 2mn
Bit rate mode : Variable
Bit rate : 128 Kbps
Maximum bit rate : 133 Kbps
Channel(s) : 2 channels
Channel positions : Front: L R
Sampling rate : 48.0 KHz
Compression mode : Lossy
Stream size : 112 MiB (11%)
Title : Dub
Language : Russian
Encoded date : UTC 2014-12-14 20:45:04
Tagged date : UTC 2014-12-14 20:45:10


Трекер:  [ 15-Дек-2014 19:30 ]

  

Скачать .torrent

Размер .torrent файла 10 KB


Размер: 1.01 GB
Хэш (hash) релиза: 9229a05d7c43d2a3c5911a850932d695763bc8bc

Еще никто не оставлял запись к записи скачать торрент [VIDEO] Самый опасный человек A Most Wanted Man . Будь первым!

!Обратная связь