Recently Added | Дикие сердцем / Wild at Heart (1990) Blu-ray 1080p | P, A | Custom | Hanbun no Tsuki ga Noboru Sora

Скачать через торрент [SERIAL] Сотня The Hundred бесплатно русская версия torrent активатор

Статистика раздачи
Размер:  1.94 GB   |    Зарегистрирован:  3 года 7 месяцев   |    .torrent скачан:  63 раза   |   
Раздают:  1  
   
загрузка...
 
Автор Сообщение

Galfimbul

avatar Galfimbul


Сотня / The Hundred



Год выпуска: 2014
Страна: США
Жанр: фантастика, боевик
Продолжительность: ~ 00:45:00 х 7
Перевод: Профессиональный (многоголосый закадровый) LostFilm
Cубтитры: нет
Режиссер: Дин Уайт / Dean White, Джон Беринг / John Behring, Милан Чейлов / Milan Cheylov
В ролях: Элиза Тейлор-Коттер, Мари Авгеропулос, Сачин Сахель, Линдси Морган, Женевьев Бюкнер, Ричард Хэрмон, Джарод Джозеф, Челси Рейст, Крис Браунинг, Джош Ссеттуба
Описание: События в сериале начинают разворачиваться по прошествии девяносто семи лет после того как всю цивилизацию уничтожила страшная атомная война.

Высоко в космосе на орбите Земли летает большой космический корабль, именно здесь находятся те, кто выжил после страшной катастрофы. Они единственные кто пережил этот ужасный катаклизм который устроило человечество. Именно с этого последнего пристанища людей на Землю отправляют космический челнок на котором находятся сто малолетних преступников...



Качество: WEB-DLRip (рип с WEB-DL 720p)
Формат: MP4
Видео: AVC at 800 Kbps, 640 x 360 (1.785) at 23.976 fps
Аудио: AAC at 128 Kbps, 2 channels, 48.0 KHz
GeneralComplete name : G:\Сотня. 2 сезон\The.100.S02E01.mp4Format : MPEG-4Format profile : Base MediaCodec ID : isomFile size : 285 MiBDuration : 42mn 32sOverall bit rate mode : VariableOverall bit rate : 936 KbpsMovie name : The 100 s2e01 (2014) Lostfilm [rutracker]Part/Position : 2Track name/Position : 1Encoded date : UTC 2014-12-14 11:15:03Tagged date : UTC 2014-12-14 11:15:11Writing application : MkvToMp4 version: 0.224 (x64)Comment : The 100 s2e01 (2014) Lostfilm [rip by Alien.09]tvsh : The 100tvsn : 2tves : 1sosn : The 100stik : 9

VideoID : 1Format : AVCFormat/Info : Advanced Video CodecFormat profile : [email protected] settings, CABAC : YesFormat settings, ReFrames : 3 framesCodec ID : avc1Codec ID/Info : Advanced Video CodingDuration : 42mn 32sBit rate : 800 KbpsMaximum bit rate : 4 024 KbpsWidth : 640 pixelsHeight : 360 pixelsDisplay aspect ratio : 16:9Frame rate mode : ConstantFrame rate : 23.976 fpsColor space : YUVChroma subsampling : 4:2:0Bit depth : 8 bitsScan type : ProgressiveBits/(Pixel*Frame) : 0.145Stream size : 243 MiB (85%)Writing library : x264 core 142 r2479M dd79a61Encoding settings : cabac=1 / ref=3 / deblock=1:0:0 / analyse=0x1:0x131 / me=hex / subme=7 / psy=1 / psy_rd=1,00:0,20 / mixed_ref=1 / me_range=16 / chroma_me=1 / trellis=1 / 8x8dct=0 / cqm=0 / deadzone=21,11 / fast_pskip=1 / chroma_qp_offset=-3 / threads=10 / lookahead_threads=1 / sliced_threads=0 / nr=0 / decimate=1 / interlaced=0 / bluray_compat=0 / constrained_intra=0 / bframes=3 / b_pyramid=0 / b_adapt=2 / b_bias=0 / direct=3 / weightb=1 / open_gop=0 / weightp=0 / keyint=230 / keyint_min=23 / scenecut=40 / intra_refresh=0 / rc_lookahead=230 / rc=2pass / mbtree=1 / bitrate=800 / ratetol=1,0 / qcomp=0,60 / qpmin=10 / qpmax=51 / qpstep=4 / cplxblur=20,0 / qblur=0,5 / vbv_maxrate=5000 / vbv_bufsize=1835 / nal_hrd=none / filler=0 / ip_ratio=1,40 / aq=1:1,00Language : EnglishEncoded date : UTC 2014-12-14 11:15:03Tagged date : UTC 2014-12-14 11:15:07

AudioID : 2Format : AACFormat/Info : Advanced Audio CodecFormat profile : LCCodec ID : 40Duration : 42mn 32sBit rate mode : VariableBit rate : 128 KbpsMaximum bit rate : 132 KbpsChannel(s) : 2 channelsChannel positions : Front: L RSampling rate : 48.0 KHzCompression mode : LossyStream size : 38.9 MiB (14%)Language : RussianEncoded date : UTC 2014-12-14 11:15:05Tagged date : UTC 2014-12-14 11:15:07
01. 48 / The 48
02. Суровая Вэзер / Inclement Weather
03. Последствия / Reapercussions
04. Долгих лет жизни / Many Happy Returns
05. Эксперименты над людьми / Human Trials
06. Туман войны / Fog of War
07. В самую бездну / Long Into an Abyss
Внимание! Раздача ведётся путём добавления новых серий; при каждом добавлении создаётся новый торрент.
Чтобы начать докачку новой серии, пользователям необходимо сделать следующее:
1. Остановить скачивание;
2. Удалить старый торрент у себя из клиента (старые серии удалять не надо);
3. Скачать новый торрент и запустить его у себя в клиенте вместо старого, при этом указать клиенту путь в старую папку куда и должно происходить скачивание новых серий. Ваш клиент при этом должен произвести хеширование (проверку) старой папки и будет докачивать только те серии, которых у вас ещё нет. Старые серии при этом не удаляются, а продолжают раздаваться! Eсли вы уже удалили старые серии, то предотвратить повторную закачку старых серий можно, отжав галочку в соответствующих местах при запуске нового торрента.


Трекер:  [ 14-Дек-2014 15:30 ]

  

Скачать .torrent

Размер .torrent файла 20 KB


Размер: 1.94 GB
Хэш (hash) релиза: 8e90a4d01a6a7efb41b00fd49b1f28bee2b300fc

Еще никто не оставлял запись к записи скачать торрент [SERIAL] Сотня The Hundred . Будь первым!

!Обратная связь