Temporada 4 | SEAL Team - Saison 1 VF | Steins;Gate 0 Episode 12 Subtitle Indonesia

Скачать через торрент [VIDEO] Мастер и Маргарита Серии: 1-10 из 10 бесплатно русская версия torrent активатор

Статистика раздачи
Размер:  2.82 GB   |    Зарегистрирован:  3 года 7 месяцев   |    .torrent скачан:  103 раза   |   
Раздают:  1  
   
загрузка...
 
Автор Сообщение

Galfimbul

avatar Galfimbul


Мастер и Маргарита



Год выпуска: 2005
Страна: Россия, Первый канал
Жанр: Экранизация, фэнтези, драма, мелодрама
Продолжительность: ~ 00:50:00 х 10
Перевод: Не требуется
Cубтитры: нет
Режиссер: Владимир Бортко
В ролях: Александр Галибин, Анна Ковальчук, Олег Басилашвили, Александр Абдулов, Александр Баширов, Александр Филиппенко, Сергей Безруков, Кирилл Лавров, Валентин Гафт, Владислав Галкин, Александр Адабашьян, Александр Панкратов-Черный, Валерий Золотухин, Роман Карцев, Илья Олейников, Нина Усатова, Дмитрий Нагиев, Лев Борисов, Вадим Лобанов
Описание: Однажды весною, в час небывало жаркого заката, в Москве, на Патриарших прудах, появились два гражданина. Первый из них, одетый в летнюю серенькую пару, был маленького роста, упитан, лыс, свою приличную шляпу пирожком нес в руке, а на хорошо выбритом лице его помещались сверхъестественных размеров очки в черной роговой оправе. Второй — плечистый, рыжеватый, вихрастый молодой человек в заломленной на затылок клетчатой кепке — был в ковбойке, жеваных белых брюках и в черных тапочках.



Качество: DVDRip
Формат: MP4
Видео: AVC at 679 Kbps, 640 x 352 (1.778) at 25.000 fps
Аудио: AAC at 128 Kbps, 2 channels, 48.0 KHz
GeneralComplete name : G:\Мастер и Маргарита (2005) 640х\Мастер и Маргарита. 01 серия.mp4Format : MPEG-4Format profile : Base MediaCodec ID : isomFile size : 258 MiBDuration : 44mn 12sOverall bit rate mode : VariableOverall bit rate : 814 KbpsMovie name : Мастер и Маргарита 01 серия (2005) [rutracker]Encoded date : UTC 2014-12-12 11:23:10Tagged date : UTC 2014-12-12 11:23:18Writing application : MkvToMp4 version: 0.224 (x64)Comment : [rip by Alien.09]stik : 9iTunEXTC : ru-movie|16+|375|

VideoID : 1Format : AVCFormat/Info : Advanced Video CodecFormat profile : [email protected] settings, CABAC : YesFormat settings, ReFrames : 3 framesCodec ID : avc1Codec ID/Info : Advanced Video CodingDuration : 44mn 12sBit rate : 679 KbpsMaximum bit rate : 3 153 KbpsWidth : 640 pixelsHeight : 352 pixelsDisplay aspect ratio : 16:9Frame rate mode : ConstantFrame rate : 25.000 fpsColor space : YUVChroma subsampling : 4:2:0Bit depth : 8 bitsScan type : ProgressiveBits/(Pixel*Frame) : 0.121Stream size : 215 MiB (83%)Writing library : x264 core 128 r2216M 198a7eaEncoding settings : cabac=1 / ref=3 / deblock=1:0:0 / analyse=0x1:0x131 / me=hex / subme=7 / psy=1 / psy_rd=1.00:0.20 / mixed_ref=1 / me_range=16 / chroma_me=1 / trellis=1 / 8x8dct=0 / cqm=0 / deadzone=21,11 / fast_pskip=1 / chroma_qp_offset=-3 / threads=4 / lookahead_threads=1 / sliced_threads=0 / nr=0 / decimate=1 / interlaced=0 / bluray_compat=0 / constrained_intra=0 / bframes=3 / b_pyramid=0 / b_adapt=2 / b_bias=0 / direct=3 / weightb=1 / open_gop=0 / weightp=0 / keyint=250 / keyint_min=25 / scenecut=40 / intra_refresh=0 / rc_lookahead=40 / rc=2pass / mbtree=1 / bitrate=679 / ratetol=1.0 / qcomp=0.60 / qpmin=10 / qpmax=51 / qpstep=4 / cplxblur=20.0 / qblur=0.5 / vbv_maxrate=5000 / vbv_bufsize=1835 / nal_hrd=none / ip_ratio=1.40 / aq=1:1.00Language : EnglishEncoded date : UTC 2014-12-12 11:23:10Tagged date : UTC 2014-12-12 11:23:14

AudioID : 2Format : AACFormat/Info : Advanced Audio CodecFormat profile : LCCodec ID : 40Duration : 44mn 12sBit rate mode : VariableBit rate : 128 KbpsMaximum bit rate : 234 KbpsChannel(s) : 2 channelsChannel positions : Front: L RSampling rate : 48.0 KHzCompression mode : LossyStream size : 40.5 MiB (16%)Language : RussianEncoded date : UTC 2014-12-12 11:23:12Tagged date : UTC 2014-12-12 11:23:14


Трекер:  [ 13-Дек-2014 15:30 ]

  

Скачать .torrent

Размер .torrent файла 15 KB


Размер: 2.82 GB
Хэш (hash) релиза: 35e469fa7c6dad38488059e5a3e161bc60b48e99

Еще никто не оставлял запись к записи скачать торрент [VIDEO] Мастер и Маргарита Серии: 1-10 из 10 . Будь первым!

!Обратная связь