Joel Morales | Ted V. Mikels | The Affair

Скачать через торрент [VIDEO] Я - начало I Origins бесплатно русская версия torrent активатор

Статистика раздачи
Размер:  629 MB   |    Зарегистрирован:  3 года 7 месяцев   |    .torrent скачан:  48 раз   |   
Раздают:  1  
   
загрузка...
 
Автор Сообщение

Galfimbul

avatar Galfimbul


Я - начало / I Origins



Год выпуска: 2014
Страна: США
Жанр: Фантастика, драма
Продолжительность: 01:48:07
Перевод: Профессиональный (многоголосый закадровый) iTunes Russia
Cубтитры: нет
Режиссер: Майк Кэхилл / Mike Cahill
В ролях: Майкл Питт, Стивен Ян, Астрид Берже-Фрисби, Брит Марлинг, Дориен Маклоги, Чарльз В. Грэй, Джон Шиумо, Фараша Бэйлок, Ако, Кристофер Сантамария
Описание: Ян Грей, специалист по молекулярной биологии в области эволюции глаз, как-то раз, оставив свою лабораторию, отправляется на вечеринку. И знакомится там с таинственной незнакомкой, которая уходит от него в ночь. Но главный герой настойчив – имея в памяти лишь картину ее прекрасных глаз, он находит ее, и они влюбляются друг в друга. Их принципиально разные взгляды на жизнь лишь еще сильнее связывают их, и влюбленные клянутся оставаться вместе всегда. Годы спустя Ян и его коллега – ученая Карен делают ошеломляющее открытие, способное обернуться серьезными последствиями. Рискуя делом всей своей жизни и своей семьей, герой фантастической драмы «Я – начало» отправляется в путешествие по миру, чтобы отыскать правду о том, что он открыл, и узнать, к чему это открытие может привести...



Качество: WEB-DLRip (рип с WEB-DL 720p)
Формат: MP4
Видео: AVC at 679 Kbps, 640 x 272 (2.386) at 23.976 fps
Аудио: AAC at 128 Kbps, 2 channels, 48.0 KHz
GeneralComplete name : G:\Я - начало WEB-DL iTunes Russia 640х.mp4Format : MPEG-4Format profile : Base MediaCodec ID : isomFile size : 629 MiBDuration : 1h 48mnOverall bit rate mode : VariableOverall bit rate : 814 KbpsMovie name : Я - начало / I Origins (2014) WEB-DL iTunes Russia [rutracker]Encoded date : UTC 2014-12-11 11:56:38Tagged date : UTC 2014-12-11 11:57:04Writing application : MkvToMp4 version: 0.224 (x64)Comment : Я - начало WEB-DL iTunes Russia [rip by Alien.09]stik : 9

VideoID : 1Format : AVCFormat/Info : Advanced Video CodecFormat profile : [email protected] settings, CABAC : YesFormat settings, ReFrames : 3 framesCodec ID : avc1Codec ID/Info : Advanced Video CodingDuration : 1h 48mnBit rate : 679 KbpsMaximum bit rate : 3 184 KbpsWidth : 640 pixelsHeight : 272 pixelsDisplay aspect ratio : 2.40:1Frame rate mode : ConstantFrame rate : 23.976 fpsColor space : YUVChroma subsampling : 4:2:0Bit depth : 8 bitsScan type : ProgressiveBits/(Pixel*Frame) : 0.163Stream size : 525 MiB (83%)Writing library : x264 core 125 r2200M 999b753Encoding settings : cabac=1 / ref=3 / deblock=1:0:0 / analyse=0x1:0x131 / me=hex / subme=7 / psy=1 / psy_rd=1.00:0.20 / mixed_ref=1 / me_range=16 / chroma_me=1 / trellis=1 / 8x8dct=0 / cqm=0 / deadzone=21,11 / fast_pskip=1 / chroma_qp_offset=-3 / threads=4 / lookahead_threads=1 / sliced_threads=0 / nr=0 / decimate=1 / interlaced=0 / bluray_compat=0 / constrained_intra=0 / bframes=3 / b_pyramid=0 / b_adapt=2 / b_bias=0 / direct=3 / weightb=1 / open_gop=0 / weightp=0 / keyint=230 / keyint_min=23 / scenecut=40 / intra_refresh=0 / rc_lookahead=40 / rc=2pass / mbtree=1 / bitrate=679 / ratetol=1.0 / qcomp=0.60 / qpmin=10 / qpmax=51 / qpstep=4 / cplxblur=20.0 / qblur=0.5 / vbv_maxrate=5000 / vbv_bufsize=1835 / nal_hrd=none / ip_ratio=1.40 / aq=1:1.00Language : EnglishEncoded date : UTC 2014-12-11 11:56:38Tagged date : UTC 2014-12-11 11:56:46

AudioID : 2Format : AACFormat/Info : Advanced Audio CodecFormat profile : LCCodec ID : 40Duration : 1h 47mnBit rate mode : VariableBit rate : 128 KbpsMaximum bit rate : 227 KbpsChannel(s) : 2 channelsChannel positions : Front: L RSampling rate : 48.0 KHzCompression mode : LossyStream size : 98.5 MiB (16%)Language : RussianEncoded date : UTC 2014-12-11 11:56:44Tagged date : UTC 2014-12-11 11:56:46


Трекер:  [ 11-Дек-2014 15:30 ]

  

Скачать .torrent

Размер .torrent файла 12 KB


Размер: 629 MB
Хэш (hash) релиза: 48f2029588deddcca3cc5cf689e1072210a8e1

Еще никто не оставлял запись к записи скачать торрент [VIDEO] Я - начало I Origins . Будь первым!

!Обратная связь