Half-Life 2: Legacy (2007) PC | padmavat 2018 movie 1080p | [Cleo] Sword Art Online Alternative: Gun Gale Online [10bit 1080p][HEVC-x265]

Скачать через торрент [MULT] Котёнок по имени Гав Серии 1-5 из 5 бесплатно русская версия torrent активатор

Статистика раздачи
Размер:  268 MB   |    Зарегистрирован:  3 года 7 месяцев   |    .torrent скачан:  88 раз   |   
Раздают:  1  
   
загрузка...
 
Автор Сообщение

Galfimbul

avatar Galfimbul


Котёнок по имени Гав



Год выпуска: 1976 – 1982
Страна: СССР, киностудия Союзмультфильм
Жанр: мультфильм, семейный
Продолжительность: 00:45:54
Перевод: Не требуется
Cубтитры: нет
Режиссер: Орест Драгаев-Бойчук, Анатолий Кирик, Лев Атаманов
В ролях: Александр Баранов, Василий Ливанов, Мария Виноградова, Светлана Харлап, Людмила Гнилова, Татьяна Решетникова
Описание: Мультфильм рассказывает о приключениях котёнка с необычным именем Гав и его друга — щенка...
Дополнительная информация: однофайловая раздача



Качество: HDRip
Формат: MP4
Видео: AVC at 679 Kbps, 480 x 360 (1.339) at 25.000 fps
Аудио: AAC at 128 Kbps, 2 channels, 48.0 KHz
GeneralComplete name : G:\Котёнок по имени Гав 01-05 серии (1976-1982) 640х.mp4Format : MPEG-4Format profile : Base MediaCodec ID : isomFile size : 268 MiBDuration : 45mn 54sOverall bit rate mode : VariableOverall bit rate : 815 KbpsMovie name : Котёнок по имени Гав 01-05 серии (1976-1982) [rutracker]Encoded date : UTC 2014-12-10 11:32:36Tagged date : UTC 2014-12-10 11:32:43Writing application : MkvToMp4 version: 0.224 (x64)Comment : Котёнок по имени Гав 01-05 серии (1976-1982) [rip by Alien.09]stik : 9iTunEXTC : ru-movie|6+|150|

VideoID : 1Format : AVCFormat/Info : Advanced Video CodecFormat profile : [email protected] settings, CABAC : YesFormat settings, ReFrames : 3 framesCodec ID : avc1Codec ID/Info : Advanced Video CodingDuration : 45mn 54sBit rate : 679 KbpsMaximum bit rate : 4 296 KbpsWidth : 480 pixelsHeight : 360 pixelsDisplay aspect ratio : 4:3Frame rate mode : ConstantFrame rate : 25.000 fpsColor space : YUVChroma subsampling : 4:2:0Bit depth : 8 bitsScan type : ProgressiveBits/(Pixel*Frame) : 0.157Stream size : 223 MiB (83%)Writing library : x264 core 125 r2200M 999b753Encoding settings : cabac=1 / ref=3 / deblock=1:0:0 / analyse=0x1:0x131 / me=hex / subme=7 / psy=1 / psy_rd=1.00:0.20 / mixed_ref=1 / me_range=16 / chroma_me=1 / trellis=1 / 8x8dct=0 / cqm=0 / deadzone=21,11 / fast_pskip=1 / chroma_qp_offset=-3 / threads=4 / lookahead_threads=1 / sliced_threads=0 / nr=0 / decimate=1 / interlaced=0 / bluray_compat=0 / constrained_intra=0 / bframes=3 / b_pyramid=0 / b_adapt=2 / b_bias=0 / direct=3 / weightb=1 / open_gop=0 / weightp=0 / keyint=250 / keyint_min=25 / scenecut=40 / intra_refresh=0 / rc_lookahead=40 / rc=2pass / mbtree=1 / bitrate=679 / ratetol=1.0 / qcomp=0.60 / qpmin=10 / qpmax=51 / qpstep=4 / cplxblur=20.0 / qblur=0.5 / vbv_maxrate=5000 / vbv_bufsize=1835 / nal_hrd=none / ip_ratio=1.40 / aq=1:1.00Language : RussianEncoded date : UTC 2014-12-10 11:32:36Tagged date : UTC 2014-12-10 11:32:40

AudioID : 2Format : AACFormat/Info : Advanced Audio CodecFormat profile : LCCodec ID : 40Duration : 45mn 54sBit rate mode : VariableBit rate : 128 KbpsMaximum bit rate : 213 KbpsChannel(s) : 2 channelsChannel positions : Front: L RSampling rate : 48.0 KHzCompression mode : LossyStream size : 42.0 MiB (16%)Language : RussianEncoded date : UTC 2014-12-10 11:32:39Tagged date : UTC 2014-12-10 11:32:40
1. История 1: "Одни неприятности", "Где лучше бояться", "Середина сосиски"
2. История 2: "Так нечестно", "Когда начинают кусаться", "Хорошо спрятанная котлета"
3. История 3: "Шарик"
4. История 4: "Секретный язык", "А все-таки она вкусная", "Дрыг и прыг!"
5. История 5: "Хозяева"


Трекер:  [ 10-Дек-2014 16:00 ]

  

Скачать .torrent

Размер .torrent файла 11 KB


Размер: 268 MB
Хэш (hash) релиза: b24958db4ffc703282994cccfa6fe3457936c162

Еще никто не оставлял запись к записи скачать торрент [MULT] Котёнок по имени Гав Серии 1-5 из 5 . Будь первым!

!Обратная связь