Бизнес | Promo Dj's | डाउनलोड APK

Скачать через торрент [MULT] Рапунцель: Запутанная история Tangled бесплатно русская версия torrent активатор

Статистика раздачи
Размер:  588 MB   |    Зарегистрирован:  3 года 7 месяцев   |    .torrent скачан:  60 раз   |   
Раздают:  1  
   
загрузка...
 
Автор Сообщение

Galfimbul

avatar Galfimbul


Рапунцель: Запутанная история / Tangled



Год выпуска: 2010
Страна: США
Жанр: мультфильм, мюзикл, фэнтези, мелодрама, комедия, семейный
Продолжительность: 01:40:57
Перевод: Профессиональный (дублированный) Blu-ray CEE
Cубтитры: нет
Режиссер: Натан Грено / Nathan Greno, Байрон Ховард / Byron Howard
В ролях: Мэнди Мур, Захари Левай, Донна Мерфи, Рон Перлман, М. К. Гейни, Джефри Тэмбор, Брэд Гэррет, Пол Ф. Томпкинс, Ричард Кил, Делани Роуз Стейн
Описание: Обаятельный разбойник Флинн путешествует по жизни с легкостью, лишь потому, что он красив, болтлив и удачлив. И казалось, фортуна всегда на его стороне, пока однажды он не выбирает высокую башню в густой чаще леса в качестве «спокойного» убежища. Флинн оказывается связанным по рукам и ногам юной красавицей по имени Рапунцель.

Если вы думаете, что самое интересное в ней - это 21 метр волшебных золотистых волос, то вы заблуждаетесь! Запертая в башне и отчаянно ищущая приключений, Рапунцель решает использовать Флинна в качестве билета в большой мир. Сначала комичное похищение, затем невинный шантаж - и вот наши герои на воле. Вместе с главными героями в авантюрное путешествие отправятся бравый конь-ищейка Максимус, ручной хамелеон и шайка сумасбродных разбойников.



Качество: HDRip (рип с BDRip 720p)
Формат: MP4
Видео: AVC at 679 Kbps, 640 x 352 (1.778) at 23.976 fps
Аудио: AAC at 128 Kbps, 2 channels, 48.0 KHz
GeneralComplete name : G:\Рапунцель Запутанная история 640х.mp4Format : MPEG-4Format profile : Base MediaCodec ID : isomFile size : 588 MiBDuration : 1h 40mnOverall bit rate mode : VariableOverall bit rate : 814 KbpsMovie name : Рапунцель: Запутанная история / Tangled (Rus 2010) [by Alien.09]Genre : AnimationEncoded date : UTC 2014-12-08 23:04:45Tagged date : UTC 2014-12-08 23:05:02Writing application : MkvToMp4 version: 0.224 (x64)Comment : [by Alien.09]stik : 9iTunEXTC : ru-movie|6+|150|

VideoID : 1Format : AVCFormat/Info : Advanced Video CodecFormat profile : [email protected] settings, CABAC : YesFormat settings, ReFrames : 3 framesCodec ID : avc1Codec ID/Info : Advanced Video CodingDuration : 1h 40mnBit rate : 679 KbpsMaximum bit rate : 5 274 KbpsWidth : 640 pixelsHeight : 352 pixelsDisplay aspect ratio : 16:9Frame rate mode : ConstantFrame rate : 23.976 fpsColor space : YUVChroma subsampling : 4:2:0Bit depth : 8 bitsScan type : ProgressiveBits/(Pixel*Frame) : 0.126Stream size : 490 MiB (83%)Writing library : x264 core 125 r2200M 999b753Encoding settings : cabac=1 / ref=3 / deblock=1:0:0 / analyse=0x1:0x131 / me=hex / subme=7 / psy=1 / psy_rd=1.00:0.20 / mixed_ref=1 / me_range=16 / chroma_me=1 / trellis=1 / 8x8dct=0 / cqm=0 / deadzone=21,11 / fast_pskip=1 / chroma_qp_offset=-3 / threads=4 / lookahead_threads=1 / sliced_threads=0 / nr=0 / decimate=1 / interlaced=0 / bluray_compat=0 / constrained_intra=0 / bframes=3 / b_pyramid=0 / b_adapt=2 / b_bias=0 / direct=3 / weightb=1 / open_gop=0 / weightp=0 / keyint=230 / keyint_min=23 / scenecut=40 / intra_refresh=0 / rc_lookahead=40 / rc=2pass / mbtree=1 / bitrate=679 / ratetol=1.0 / qcomp=0.60 / qpmin=10 / qpmax=51 / qpstep=4 / cplxblur=20.0 / qblur=0.5 / vbv_maxrate=5000 / vbv_bufsize=1835 / nal_hrd=none / ip_ratio=1.40 / aq=1:1.00Language : EnglishEncoded date : UTC 2014-12-08 23:04:45Tagged date : UTC 2014-12-08 23:04:52

AudioID : 2Format : AACFormat/Info : Advanced Audio CodecFormat profile : LCCodec ID : 40Duration : 1h 40mnBit rate mode : VariableBit rate : 128 KbpsMaximum bit rate : 215 KbpsChannel(s) : 2 channelsChannel positions : Front: L RSampling rate : 48.0 KHzCompression mode : LossyStream size : 92.2 MiB (16%)Language : RussianEncoded date : UTC 2014-12-08 23:04:49Tagged date : UTC 2014-12-08 23:04:52


Трекер:  [ 09-Дек-2014 03:00 ]

  

Скачать .torrent

Размер .torrent файла 12 KB


Размер: 588 MB
Хэш (hash) релиза: 385b7e2f02e99f17ffa7248bc986ced0f09de94d

Еще никто не оставлял запись к записи скачать торрент [MULT] Рапунцель: Запутанная история Tangled . Будь первым!

!Обратная связь