Robert Wagner | U-prince The Series: ... | Threesome

Скачать через торрент [VIDEO] Одна миллиардная доля Parts Per Billion бесплатно русская версия torrent активатор

Статистика раздачи
Размер:  840 MB   |    Зарегистрирован:  3 года 7 месяцев   |    .torrent скачан:  32 раза   |   
Раздают:  1  
   
загрузка...
 
Автор Сообщение

Galfimbul

avatar Galfimbul


Одна миллиардная доля
Parts Per Billion

Год выпуска: 2014
Страна: США (Antena 3 Films, Grand Piano Productions, Nostromo Canarias 1 AIE)
Жанр: Фантастика
Продолжительность: 01:38:35
Перевод: Профессиональный (многоголосый, закадровый)
Оригинальная дорожка: Нет
Cубтитры: Нет
Режиссер: Брайан Хориути / Brian Horiuchi
В ролях: Фрэнк Ланджелла, Джина Роулендс, Розарио Доусон, Джош Хартнетт, Тереза Палмер, Пенн Бэджли, Алексис Бледел, Хилл Харпер, Стефен Свон, Джон Прескотт
Описание: Юные влюбленные Анна и Эрик, пожилые супруги Эстер и Энди, не так давно ставшие мужем и женой Лен и Миа — их жизнь состояла из повседневных мелочей и большой любви, из страсти и нежности, из ревности и верности. Кто-то из них думал о завтрашнем дне с тревогой, а кто-то с надеждой на счастье. Но завтра для них, как и для миллионов людей, может не наступить никогда. В войне на Ближнем Востоке одна из сторон применила бактериологическое оружие, смертоносное облако накрыло всю Европу и уже приблизилось к восточному побережью Соединенных Штатов. Мир оказался на грани вымирания: достаточно нескольких вдохов зараженного воздуха, концентрация вирусов в котором один на миллиард, — и конец неминуем.

Качество: HDRip (Рип с BDRip 1080p)
Формат: MP4
Видео: AVC, 960x520 (2.40:1), 1055 kbps, 23.976 fps
Аудио: Русский, AAC, 2 ch, 48 kHz, 128 kbps [MVO]
x264 [info]: frame I:906 Avg QP:15.93 size: 55121
x264 [info]: frame P:30489 Avg QP:19.43 size: 13117
x264 [info]: frame B:110424 Avg QP:22.45 size: 2991

x264 [total]: encoded 141819 frames, 3.81 fps, 1055.09 kb/s
General
Complete name : [VIDEO] Parts.Per.Billion.2014.HDRip.x264.960x(semen_52-TNC).mp4
Format : MPEG-4
Format profile : Base Media
Codec ID : isom
File size : 840 MiB
Duration : 1h 38mn
Overall bit rate mode : Variable
Overall bit rate : 1 191 Kbps
Movie name : [VIDEO] Parts Per Billion 2014 HDRip x264 960x(semen_52-TNC)
ContentType : Short Film
Encoded date : UTC 2014-12-08 19:32:38
Tagged date : UTC 2014-12-08 19:34:13
Writing application : MkvToMp4 version: 0.224 (x64)
Comment : Rip by semen_52-TNC

Video
ID : 1
Format : AVC
Format/Info : Advanced Video Codec
Format profile : [email protected]
Format settings, CABAC : Yes
Format settings, ReFrames : 8 frames
Codec ID : avc1
Codec ID/Info : Advanced Video Coding
Duration : 1h 38mn
Bit rate : 1 055 Kbps
Maximum bit rate : 22.0 Mbps
Width : 960 pixels
Height : 520 pixels
Display aspect ratio : 1.85:1
Frame rate mode : Constant
Frame rate : 23.976 fps
Color space : YUV
Chroma subsampling : 4:2:0
Bit depth : 8 bits
Scan type : Progressive
Bits/(Pixel*Frame) : 0.088
Stream size : 744 MiB (89%)
Writing library : x264 core 130 r2273 b3065e6
Encoding settings : cabac=1 / ref=8 / deblock=1:-3:-3 / analyse=0x3:0x133 / me=esa / subme=9 / psy=1 / psy_rd=1.00:0.15 / mixed_ref=1 / me_range=32 / chroma_me=1 / trellis=2 / 8x8dct=1 / cqm=0 / deadzone=21,11 / fast_pskip=0 / chroma_qp_offset=-3 / threads=12 / lookahead_threads=2 / sliced_threads=0 / nr=0 / decimate=1 / interlaced=0 / bluray_compat=0 / constrained_intra=0 / bframes=9 / b_pyramid=2 / b_adapt=2 / b_bias=0 / direct=1 / weightb=1 / open_gop=0 / weightp=2 / keyint=250 / keyint_min=25 / scenecut=40 / intra_refresh=0 / rc_lookahead=60 / rc=crf / mbtree=1 / crf=20.0 / qcomp=0.60 / qpmin=0 / qpmax=69 / qpstep=4 / ip_ratio=1.40 / aq=1:0.90
Language : English
Encoded date : UTC 2014-12-08 19:32:38
Tagged date : UTC 2014-12-08 19:33:01

Audio
ID : 2
Format : AAC
Format/Info : Advanced Audio Codec
Format profile : LC
Codec ID : 40
Duration : 1h 38mn
Bit rate mode : Variable
Bit rate : 128 Kbps
Maximum bit rate : 135 Kbps
Channel(s) : 2 channels
Channel positions : Front: L R
Sampling rate : 48.0 KHz
Compression mode : Lossy
Stream size : 90.3 MiB (11%)
Title : MVO
Language : Russian
Encoded date : UTC 2014-12-08 19:32:54
Tagged date : UTC 2014-12-08 19:33:01


Трекер:  [ 08-Дек-2014 23:00 ]

  

Скачать .torrent

Размер .torrent файла 17 KB


Размер: 840 MB
Хэш (hash) релиза: e10589687b9f25fe10cfbfe2a359f8c0209c6a56

Торренты, похожие на [VIDEO] Одна миллиардная доля Parts Per Billion скачать торрент

Форум Название Автор Размер S L Добавлен
Видео (Фильмы/Клипы) ·· [VIDEO] Одна миллиардная доля / Parts Per Billion (Брайан Хориути) [2014, фантастика, драма, мелодрама, BDRip] [MP4, 1280x] Galfimbul 19491836111.82 GB 0 0 1451226699

17:31

27-Дек-15

Еще никто не оставлял запись к записи скачать торрент [VIDEO] Одна миллиардная доля Parts Per Billion . Будь первым!

!Обратная связь