Steins;Gate 0 Episode 9 Subtitle Indonesia | Ein echter Wiener geht nicht unter | PDF DOWNLOAD Expert Resumes for People Returning to Work FOR IPAD

Скачать через торрент [VIDEO] Избави нас от лукавого Deliver Us from Evil бесплатно русская версия torrent активатор

Статистика раздачи
Размер:  1.02 GB   |    Зарегистрирован:  3 года 7 месяцев   |    .torrent скачан:  57 раз   |   
Раздают:  1  
   
загрузка...
 
Автор Сообщение

Galfimbul

avatar Galfimbul


Избави нас от лукавого
Deliver Us from Evil

Год выпуска: 2014
Страна: США (Jerry Bruckheimer Films, Screen Gems)
Жанр: Ужасы, триллер, криминал
Продолжительность: 01:58:26
Перевод: Профессиональный (дублированный)
Оригинальная дорожка: Английский
Cубтитры: Русские, форсированные и полные, отключаемые
Режиссер: Скотт Дерриксон / Scott Derrickson
В ролях: Эрик Бана, Эдгар Рамирес, Оливия Манн, Крис Кой, Дориан Миссик, Шон Харрис, Джоэл МакХэйл, Майк Хьюстон, Лулу Уилсон, Оливия Хортон
Описание: Полиция Нью-Йорка расследует серию тревожных и необъяснимых преступлений. Один из офицеров обращается за помощью к специалисту по экзорцизму, чтобы избавить город от дьявольской напасти.

Качество: HDRip (Рип с BDRip 1080p)
Формат: MP4
Видео: AVC, 960x400 (2.40:1), 966 kbps, 23.976 fps
Аудио 1: Русский, AAC, 2 ch, 48 kHz, 128 kbps [Dub]
Аудио 2: Английский, AAC, 2 ch, 48 kHz, 128 kbps [Original]
Фильм снят по мотивам книги нью-йоркского полицейского Ральфа Сарчи «Остерегайтесь ночи» (Beware of the night), которая была написана на основе его личного опыта.
Главную роль предлагали Марку Уолбергу, но он отказался. В итоге роль получил Эрик Бана.
Джоэл МакХэйл несколько месяцев посещал тренировки по обращению с ножами и боевым искусствам, чтобы самостоятельно выполнять трюки с ножами во время съемок. При этом он не получил практически ни одной травмы за время тренировок и в период съемок. Лишь в последний съемочный день, когда сын МакХэйла пришел на съемочную площадку, актер решил отрезать для него своим ножом кусок белого шоколада и порезался.
Роль Батлера изначально писалась под Джоэла МакХэйла. При этом, по словам режиссера Скотта Дерриксона, Батлер был худшим персонажем в сценарии. Но потом он представил – каким бы был МакХэйл, если бы он пошел в армию, а не в колледж, и работал бы в правоохранительных органах, а не в сфере развлечений. После этого писать роль стало проще, и персонаж был значительно доработан.
В фильме большое количество музыки группы The Doors, а также различных отсылок на нее. К примеру, во время финального изгнания нечистой силы Сантино говорит: «Is everybody in? Is everybody in? The ceremony is about to begin» (Все в сборе? Все в сборе? Церемония скоро начнется). Это отсылка к песне «Celebration Of The Lizard».
В начале фильма Джимми оставляет глубокий порез на руке Сарчи во время их противостояния. И его напарник говорит о том, что понадобится наложить швы. Далее в сцене в зоопарке Бронкса раны не видно. А сразу же после этого, когда Сарчи находится у себя дома, его рука уже перевязана.
Когда священник рассказывает Ральфу о своем романе и последующем аборте его девушки, он говорит, что должен быть лишен сана (в оригинале «defrocked»). Затем он говорит, что его исповедник также предупреждал его, что если он еще раз поведет себя подобным образом, то будет лишен сана. «Defrocked» (лишение сана) является протестантским термином, и католические священники его не используют.
x264 [info]: frame I:1388 Avg QP:14.70 size: 42076
x264 [info]: frame P:39196 Avg QP:18.73 size: 10312
x264 [info]: frame B:129791 Avg QP:21.37 size: 3045

x264 [total]: encoded 170375 frames, 9.09 fps, 965.67 kb/s
General
Complete name : [VIDEO] Deliver.Us.from.Evil.2014.HDRip.x264.960x(semen_52-TNC).mp4
Format : MPEG-4
Format profile : Base Media
Codec ID : isom
File size : 1.02 GiB
Duration : 1h 58mn
Overall bit rate mode : Variable
Overall bit rate : 1 233 Kbps
Movie name : [VIDEO] Deliver Us from Evil 2014 HDRip x264 960x(semen_52-TNC)
ContentType : Short Film
Encoded date : UTC 2014-12-08 02:33:36
Tagged date : UTC 2014-12-08 02:36:04
Writing application : MkvToMp4 version: 0.224 (x64)
Comment : Rip by semen_52-TNC

Video
ID : 1
Format : AVC
Format/Info : Advanced Video Codec
Format profile : [email protected]
Format settings, CABAC : Yes
Format settings, ReFrames : 8 frames
Codec ID : avc1
Codec ID/Info : Advanced Video Coding
Duration : 1h 58mn
Bit rate : 966 Kbps
Maximum bit rate : 10.4 Mbps
Width : 960 pixels
Height : 400 pixels
Display aspect ratio : 2.40:1
Frame rate mode : Constant
Frame rate : 23.976 fps
Color space : YUV
Chroma subsampling : 4:2:0
Bit depth : 8 bits
Scan type : Progressive
Bits/(Pixel*Frame) : 0.105
Stream size : 818 MiB (78%)
Writing library : x264 core 130 r2273 b3065e6
Encoding settings : cabac=1 / ref=8 / deblock=1:-3:-3 / analyse=0x3:0x133 / me=esa / subme=9 / psy=1 / psy_rd=1.00:0.15 / mixed_ref=1 / me_range=32 / chroma_me=1 / trellis=2 / 8x8dct=1 / cqm=0 / deadzone=21,11 / fast_pskip=0 / chroma_qp_offset=-3 / threads=12 / lookahead_threads=2 / sliced_threads=0 / nr=0 / decimate=1 / interlaced=0 / bluray_compat=0 / constrained_intra=0 / bframes=11 / b_pyramid=2 / b_adapt=2 / b_bias=0 / direct=1 / weightb=1 / open_gop=0 / weightp=2 / keyint=250 / keyint_min=25 / scenecut=40 / intra_refresh=0 / rc_lookahead=60 / rc=crf / mbtree=1 / crf=19.0 / qcomp=0.60 / qpmin=0 / qpmax=69 / qpstep=4 / ip_ratio=1.40 / aq=1:0.90
Language : English
Encoded date : UTC 2014-12-08 02:33:36
Tagged date : UTC 2014-12-08 02:34:12

Audio #1
ID : 2
Format : AAC
Format/Info : Advanced Audio Codec
Format profile : LC
Codec ID : 40
Duration : 1h 58mn
Bit rate mode : Variable
Bit rate : 128 Kbps
Maximum bit rate : 135 Kbps
Channel(s) : 2 channels
Channel positions : Front: L R
Sampling rate : 48.0 KHz
Compression mode : Lossy
Stream size : 108 MiB (10%)
Title : Dub
Language : Russian
Encoded date : UTC 2014-12-08 02:33:55
Tagged date : UTC 2014-12-08 02:34:12

Audio #2
ID : 3
Format : AAC
Format/Info : Advanced Audio Codec
Format profile : LC
Codec ID : 40
Duration : 1h 58mn
Bit rate mode : Variable
Bit rate : 128 Kbps
Maximum bit rate : 135 Kbps
Channel(s) : 2 channels
Channel positions : Front: L R
Sampling rate : 48.0 KHz
Compression mode : Lossy
Stream size : 108 MiB (10%)
Title : Original
Language : English
Encoded date : UTC 2014-12-08 02:34:04
Tagged date : UTC 2014-12-08 02:34:12

Text #1
ID : 4
Format : Timed Text
Muxing mode : sbtl
Codec ID : tx3g
Duration : 1h 55mn
Bit rate mode : Variable
Bit rate : 2 bps
Stream size : 1.47 KiB (0%)
Title : Forced
Language : Russian
Encoded date : UTC 2014-12-08 02:34:12
Tagged date : UTC 2014-12-08 02:34:12

Text #2
ID : 5
Format : Timed Text
Muxing mode : sbtl
Codec ID : tx3g
Duration : 1h 50mn
Bit rate mode : Variable
Bit rate : 76 bps
Stream size : 62.0 KiB (0%)
Title : Full
Language : Russian
Encoded date : UTC 2014-12-08 02:34:12
Tagged date : UTC 2014-12-08 02:34:12


Трекер:  [ 08-Дек-2014 06:30 ]

  

Скачать .torrent

Размер .torrent файла 10 KB


Размер: 1.02 GB
Хэш (hash) релиза: 5e48db75ece01973b1051d8525b2b115d4cd88bd

Торренты, похожие на [VIDEO] Избави нас от лукавого Deliver Us from Evil скачать торрент

Форум Название Автор Размер S L Добавлен
Видео (Фильмы/Клипы) ·· [VIDEO] Избави нас от лукавого / Deliver Us from Evil (Скотт Дерриксон / Scott Derrickson) [2014, ужасы, триллер, детектив, BDRip] [MP4, 1280x] Galfimbul 19677833481.83 GB 0 0 1486796971

10:09

11-Фев-17

Еще никто не оставлял запись к записи скачать торрент [VIDEO] Избави нас от лукавого Deliver Us from Evil . Будь первым!

!Обратная связь