The Amazing World of Gumball S06E04 HDTV x264-W4F [eztv] | Windows 10 X64 6in1 v1511 ESD en-US July 2016 {Gen2} | The Last Man on Earth

Скачать через торрент [VIDEO] Игра Эндера Enders Game бесплатно русская версия torrent активатор

Статистика раздачи
Размер:  1.24 GB   |    Зарегистрирован:  3 года 7 месяцев   |    .torrent скачан:  42 раза   |   
Раздают:  1  
   
загрузка...
 
Автор Сообщение

Galfimbul

avatar Galfimbul


Игра Эндера
Ender's Game

Год выпуска: 2013
Страна: США (Chartoff Productions, Digital Domain Media Group, Kurtzman Orci Paper Products, Summit Entertainment)
Жанр: Фантастика, боевик, приключения, экранизация
Продолжительность: 01:53:48
Перевод 1: Профессиональный (дублированный) [TV 1000 Action]
Перевод 2: Авторский (одноголосый) [Гаврилов]
Оригинальная дорожка: Английский
Cубтитры: Русские, полные, отключаемые
Режиссер: Гэвин Худ / Gavin Hood
В ролях: Эйса Баттерфилд, Харрисон Форд, Бен Кингсли, Виола Дэвис, Хейли Стайнфелд, Эбигейл Бреслин, Арамис Найт, Сурадж Партха, Мойзес Ариас, Кайлин Рамбо
Описание: Земля была дважды разорена инопланетной расой, которая решила уничтожить человечество. Семьдесят лет спустя люди Земли объединяются, чтобы не допустить их собственного истребления. Эндер Виггин — тихий, но невероятно способный мальчик, который может стать спасителем человеческой расы. Его отправляют в специальную школу, размещенную на орбите Земли, где его превратят в убийцу, способного противостоять инопланетному вторжению… Экранизация по произведению: Орсон Скотт Кард.

Качество: HDRip (Рип с BDRip 1080p)
Формат: MP4
Видео: AVC, 960x400 (2.40:1), 1155 kbps, 23.976 fps
Аудио 1: Русский, AAC, 2 ch, 48 kHz, 128 kbps [Dub, TV 1000 Action]
Аудио 2: Русский, AAC, 2 ch, 48 kHz, 128 kbps [AVO, Гаврилов]
Аудио 3: Английский, AAC, 2 ch, 48 kHz, 128 kbps [Original]
Сатурн, 2014 год
Номинации (3):
Лучший молодой актер/актриса (Эйса Баттерфилд)
Лучший актер второго плана (Харрисон Форд)
Лучший научно-фантастический фильм
Фильм снят по мотивам романа Орсона Скотта Карда «Игра Эндера» (Ender`s Game, 1985).
Съемки фильма проходили в комплексе НАСА в Новом Орлеане, штат Луизиана.
Для достижения эффекта невесомости в помещении для симуляции сражений были придуманы две установки. Первая — «рука-леденец», которая использовалась как противовес и давала полный диапазон движения. Вторая — «человеческий кран». По сути, он похож на первую установку, но с использованием воздушных шайб, за счет которых достигалось ощущение, что человек плавает в воздухе.
Работы над различными версиями киносценария по «Игре Эндера» шли приблизительно с начала 2000 годов. Последняя версия сценария, написанная самим автором романа, была закончена в начале 2009 года.
В корпусе морской пехоты США книга «Игра Эндера» присутствует в списке рекомендуемой офицерам литературы с пометкой, что в этой книге есть «уроки по методике обучения, лидерству и этике».
Для того чтобы самостоятельно выполнять акробатические упражнения на канате, актеры на протяжении месяца тренировались вместе с участниками Cirque du Soleil.
Продюсеры фильма консультировались с генеральным директором компании SpaceX Элоном Маском по вопросам технологий космических шаттлов будущего, изображенных в фильме.
Показанное в фильме помещение для симуляции сражений в диаметре охватывает три футбольных поля.
Эйса Баттерфилд, Хейли Стайнфелд и несколько других актеров, игравших кадетов военной школы, до начала съемок фильма посетили космический лагерь для подготовки к съемкам сцен с невесомостью.
Режиссер Гэвин Худ впервые прочитал книгу «Игра Эндера» в достаточно зрелом возрасте. На тот момент он уже отслужил в армии, будучи призванным в 17 лет.
Город, изображенный на агитационных плакатах, — это Гонконг.
В мае 2013 года группа сторонников ЛГБТ запустила кампанию против фильма в связи с выраженными в нем мнениями и действиями, предпринимаемыми автором романа Орсоном Скоттом Кардом, который также является продюсером фильма. Студия и несколько человек, непосредственно занимающихся созданием фильма, включая самого Карда, позже опубликовали заявление по этому поводу. Все, кроме самого Карда, сказали, что они не поддерживают взгляды Карда, и призвали людей в любом случае посмотреть фильм.
Некоторый реквизит для фильма был создан при помощи 3D-принтеров, в том числе и модель корабля Mazer Rackham, которую можно заметить в жилище Эндера.
Компания Digital Domain, которая занималась спецэффектами этого фильма, предварительно сделала деморолик, демонстрирующий помещение для симуляции сражений, что позволило продюсерам без особых затруднений привлечь необходимые фильму инвестиции.
Каждое из укрытий от лазерного огня команды противника в сценах симуляции боев весило почти по 6000 кг.
С момента издания книги в 1985 году Орсон Скотт Кард получал множество предложений от голливудских киностудий по ее экранизации, но он постоянно им отказывал, чтобы сохранить целостность своего видения этой истории. Когда Кард стал соучредителем студии Fresco Pictures в 1996 году, он решил сам написать сценарий фильма, а также стать его продюсером.
В начале 2000-х Джейк Ллойд был одним из главных претендентов на роль Эндера. Так совпало, что в то же время Ллойд снялся для рекламной кампании по содействию библиотеке, и там он был изображен читающим книгу «Игра Эндера».
В фильме присутствуют завуалированные отсылки к творчеству Стенли Кубрика. К примеру, та часть корабля, в которой поддерживается искусственная гравитация, по форме и принципу вращения напоминает корабль из фильма «2001 год: Космическая одиссея» (1968). Также в сцене с выправкой поступивших в центр новобранцев, устройство казармы и принцип диалогов сержанта Депа схож, а иногда и совпадает, со сценой приема новобранцев сержантом Харманом из фильма «Цельнометаллическая оболочка» (1987).
x264 [info]: frame I:1917 Avg QP:15.08 size: 53963
x264 [info]: frame P:39149 Avg QP:18.74 size: 12879
x264 [info]: frame B:122662 Avg QP:21.87 size: 3081

x264 [total]: encoded 163728 frames, 12.71 fps, 1154.57 kb/s
General
Complete name : [VIDEO] Enders.Game.2013.HDRip.x264.960x(semen_52-TNC).mp4
Format : MPEG-4
Format profile : Base Media
Codec ID : isom
File size : 1.24 GiB
Duration : 1h 53mn
Overall bit rate mode : Variable
Overall bit rate : 1 553 Kbps
Movie name : [VIDEO] Enders Game 2013 HDRip x264 960x(semen_52-TNC)
ContentType : Short Film
Encoded date : UTC 2014-12-07 10:27:22
Tagged date : UTC 2014-12-07 10:31:09
Writing application : MkvToMp4 version: 0.224 (x64)
Comment : Rip by semen_52-TNC

Video
ID : 1
Format : AVC
Format/Info : Advanced Video Codec
Format profile : [email protected]
Format settings, CABAC : Yes
Format settings, ReFrames : 8 frames
Codec ID : avc1
Codec ID/Info : Advanced Video Coding
Duration : 1h 53mn
Bit rate : 1 155 Kbps
Maximum bit rate : 12.3 Mbps
Width : 960 pixels
Height : 400 pixels
Display aspect ratio : 2.40:1
Frame rate mode : Constant
Frame rate : 23.976 fps
Color space : YUV
Chroma subsampling : 4:2:0
Bit depth : 8 bits
Scan type : Progressive
Bits/(Pixel*Frame) : 0.125
Stream size : 940 MiB (74%)
Writing library : x264 core 130 r2273 b3065e6
Encoding settings : cabac=1 / ref=8 / deblock=1:-3:-3 / analyse=0x3:0x133 / me=esa / subme=9 / psy=1 / psy_rd=1.00:0.15 / mixed_ref=1 / me_range=32 / chroma_me=1 / trellis=2 / 8x8dct=1 / cqm=0 / deadzone=21,11 / fast_pskip=0 / chroma_qp_offset=-3 / threads=12 / lookahead_threads=2 / sliced_threads=0 / nr=0 / decimate=1 / interlaced=0 / bluray_compat=0 / constrained_intra=0 / bframes=8 / b_pyramid=2 / b_adapt=2 / b_bias=0 / direct=1 / weightb=1 / open_gop=0 / weightp=2 / keyint=250 / keyint_min=25 / scenecut=40 / intra_refresh=0 / rc_lookahead=60 / rc=crf / mbtree=1 / crf=19.0 / qcomp=0.60 / qpmin=0 / qpmax=69 / qpstep=4 / ip_ratio=1.40 / aq=1:0.90
Language : English
Encoded date : UTC 2014-12-07 10:27:22
Tagged date : UTC 2014-12-07 10:28:29

Audio #1
ID : 2
Format : AAC
Format/Info : Advanced Audio Codec
Format profile : LC
Codec ID : 40
Duration : 1h 53mn
Bit rate mode : Variable
Bit rate : 128 Kbps
Maximum bit rate : 135 Kbps
Channel(s) : 2 channels
Channel positions : Front: L R
Sampling rate : 48.0 KHz
Compression mode : Lossy
Stream size : 104 MiB (8%)
Title : Dub
Language : Russian
Encoded date : UTC 2014-12-07 10:27:40
Tagged date : UTC 2014-12-07 10:28:29

Audio #2
ID : 3
Format : AAC
Format/Info : Advanced Audio Codec
Format profile : LC
Codec ID : 40
Duration : 1h 53mn
Bit rate mode : Variable
Bit rate : 128 Kbps
Maximum bit rate : 135 Kbps
Channel(s) : 2 channels
Channel positions : Front: L R
Sampling rate : 48.0 KHz
Compression mode : Lossy
Stream size : 104 MiB (8%)
Title : AVO Gavrilov
Language : Russian
Encoded date : UTC 2014-12-07 10:28:00
Tagged date : UTC 2014-12-07 10:28:29

Audio #3
ID : 4
Format : AAC
Format/Info : Advanced Audio Codec
Format profile : LC
Codec ID : 40
Duration : 1h 53mn
Bit rate mode : Variable
Bit rate : 128 Kbps
Maximum bit rate : 135 Kbps
Channel(s) : 2 channels
Channel positions : Front: L R
Sampling rate : 48.0 KHz
Compression mode : Lossy
Stream size : 104 MiB (8%)
Title : Original
Language : English
Encoded date : UTC 2014-12-07 10:28:15
Tagged date : UTC 2014-12-07 10:28:29

Text
ID : 5
Format : Timed Text
Muxing mode : sbtl
Codec ID : tx3g
Duration : 1h 45mn
Bit rate mode : Variable
Bit rate : 93 bps
Stream size : 71.9 KiB (0%)
Title : Full
Language : Russian
Encoded date : UTC 2014-12-07 10:28:29
Tagged date : UTC 2014-12-07 10:28:29


Трекер:  [ 07-Дек-2014 14:30 ]

  

Скачать .torrent

Размер .torrent файла 13 KB


Размер: 1.24 GB
Хэш (hash) релиза: b8f70d99f59f7edbd7e34d9c2aafb960d71f2671

Еще никто не оставлял запись к записи скачать торрент [VIDEO] Игра Эндера Enders Game . Будь первым!

!Обратная связь