BrattySis.18.04.27.Jasmine.Gomez.Step.Famil | オフィス | Marvin Gaye - 50 (Box 3CD)[Flac]

Скачать через торрент [VIDEO] Тэмми Tammy бесплатно русская версия torrent активатор

Статистика раздачи
Размер:  1.13 GB   |    Зарегистрирован:  3 года 8 месяцев   |    .torrent скачан:  44 раза   |   
Раздают:  1  
   
загрузка...
 
Автор Сообщение

Galfimbul

avatar Galfimbul


Тэмми
Tammy

Год выпуска: 2014
Страна: США (Gary Sanchez Productions, New Line Cinema)
Жанр: Комедия
Продолжительность: 01:36:45
Перевод: Профессиональный (многоголосый, закадровый)
Оригинальная дорожка: Нет
Cубтитры: Нет
Режиссер: Бен Фэлкоун / Ben Falcone
В ролях: Мелисса МакКарти, Сьюзен Сарандон, Кэти Бэйтс, Эллисон Джэнни, Дэн Эйкройд, Марк Дюпласс, Гэри Коул, Нат Факсон, Тони Коллетт
Описание: Тэмми увольняют из ресторана быстрого питания. Возвращаясь домой, она застает своего мужа за романтическим ужином с соседкой. Увидев это, Тэмми собирает вещи и отправляется к родителям. Расстроенная героиня решает поехать в путешествие к Ниагарскому водопаду, вот только ее мама отказывается дать ей свою машину. Тэмми прибегает к помощи бабушки Перл. В итоге они вместе с бабулей отправляются в путь, и вскоре выясняется, что Перл большая любительница выпить…

Качество: HDRip (Рип с BDRip 1080p)
Формат: MP4
Видео: AVC, 960x536 (16:9), 1534 kbps, 24.000 fps
Аудио: Русский, AAC, 2 ch, 48 kHz, 128 kbps [MVO]
Сюжет основан на сне, который приснился Бену Фэлкоуну. Сон был о его жене Мелиссе МакКарти, сотруднице фастфуд-ресторана, чья жизнь разваливается.
Первоначально на роль бабушки планировали взять Ширли МакЛейн, но поскольку не удалось согласовать расписание съемок с сериалом «Аббатство Даунтон» (2010), в котором была задействована актриса, ее роль отдали Сьюзен Сарандон. Также на эту роль рассматривалась кандидатура Дебби Рейнолдс.
В начале фильма, когда Тэмми увольняют, можно заметить, что зажим для галстука Бена Фэлкоуна меняет свое положение при смене кадра.
Когда Тэмми отправляется в дом престарелых, чтобы вызволить оттуда свою бабушку, по сюжету они должны быть в Иллинойсе, но у всех машин на парковке номерные знаки штата Кентукки.
xx264 [info]: frame I:1517 Avg QP:20.08 size: 89781
x264 [info]: frame P:30966 Avg QP:23.30 size: 19188
x264 [info]: frame B:106713 Avg QP:26.35 size: 3651

x264 [total]: encoded 139196 frames, 5.77 fps, 1543.27 kb/s
General
Complete name : [VIDEO] Tammy.2014.Theatrical.Cut.HDRip.x264.960x(semen_52-TNC).mp4
Format : MPEG-4
Format profile : Base Media
Codec ID : isom
File size : 1.13 GiB
Duration : 1h 36mn
Overall bit rate mode : Variable
Overall bit rate : 1 679 Kbps
Movie name : [VIDEO] Tammy 2014 HDRip x264 960x(semen_52-TNC)
ContentType : Short Film
Encoded date : UTC 2014-12-06 20:37:24
Tagged date : UTC 2014-12-06 20:57:58
Writing application : MkvToMp4 version: 0.224 (x64)
Comment : Rip by semen_52-TNC

Video
ID : 1
Format : AVC
Format/Info : Advanced Video Codec
Format profile : [email protected]
Format settings, CABAC : Yes
Format settings, ReFrames : 8 frames
Codec ID : avc1
Codec ID/Info : Advanced Video Coding
Duration : 1h 36mn
Bit rate : 1 543 Kbps
Maximum bit rate : 9 888 Kbps
Width : 960 pixels
Height : 536 pixels
Display aspect ratio : 16:9
Frame rate mode : Constant
Frame rate : 23.976 fps
Color space : YUV
Chroma subsampling : 4:2:0
Bit depth : 8 bits
Scan type : Progressive
Bits/(Pixel*Frame) : 0.125
Stream size : 1.04 GiB (92%)
Writing library : x264 core 130 r2273 b3065e6
Encoding settings : cabac=1 / ref=8 / deblock=1:-3:-3 / analyse=0x3:0x133 / me=esa / subme=9 / psy=1 / psy_rd=1.00:0.15 / mixed_ref=1 / me_range=32 / chroma_me=1 / trellis=2 / 8x8dct=1 / cqm=0 / deadzone=21,11 / fast_pskip=0 / chroma_qp_offset=-3 / threads=12 / lookahead_threads=2 / sliced_threads=0 / nr=0 / decimate=1 / interlaced=0 / bluray_compat=0 / constrained_intra=0 / bframes=8 / b_pyramid=2 / b_adapt=2 / b_bias=0 / direct=1 / weightb=1 / open_gop=0 / weightp=2 / keyint=250 / keyint_min=25 / scenecut=40 / intra_refresh=0 / rc_lookahead=60 / rc=crf / mbtree=1 / crf=22.3 / qcomp=0.60 / qpmin=0 / qpmax=69 / qpstep=4 / ip_ratio=1.40 / aq=1:0.90
Language : English
Encoded date : UTC 2014-12-06 20:37:24
Tagged date : UTC 2014-12-06 20:53:50

Audio
ID : 2
Format : AAC
Format/Info : Advanced Audio Codec
Format profile : LC
Codec ID : 40
Duration : 1h 36mn
Bit rate mode : Variable
Bit rate : 128 Kbps
Maximum bit rate : 134 Kbps
Channel(s) : 2 channels
Channel positions : Front: L R
Sampling rate : 48.0 KHz
Compression mode : Lossy
Stream size : 88.6 MiB (8%)
Title : MVO
Language : Russian
Encoded date : UTC 2014-12-06 20:37:51
Tagged date : UTC 2014-12-06 20:53:50


Трекер:  [ 07-Дек-2014 09:00 ]

  

Скачать .torrent

Размер .torrent файла 12 KB


Размер: 1.13 GB
Хэш (hash) релиза: b1ef9e70c628dc7e62d94268e4d4616dcee198f5

Еще никто не оставлял запись к записи скачать торрент [VIDEO] Тэмми Tammy . Будь первым!

!Обратная связь