Tokyo Kids | تحميل APK | Il Maestro e Margherita

Скачать через торрент [VIDEO] Обитель проклятых Eliza Graves бесплатно русская версия torrent активатор

Статистика раздачи
Размер:  656 MB   |    Зарегистрирован:  3 года 7 месяцев   |    .torrent скачан:  48 раз   |   
Раздают:  1  
   
загрузка...
 
Автор Сообщение

Galfimbul

avatar Galfimbul


Обитель проклятых / Eliza Graves / Stonehearst Asylum



Год выпуска: 2014
Страна: США
Жанр: триллер
Продолжительность: 01:52:41
Перевод: Профессиональный (дублированный) Blu-ray RUS
Cубтитры: нет
Режиссер: Брэд Андерсон / Brad Anderson
В ролях: Кейт Бекинсейл, Джим Стёрджесс, Бен Кингсли, Дэвид Тьюлис, Майкл Кейн, Брендан Глисон, Джейсон Флеминг, Софи Кеннеди Кларк, Шинед Кьюсак, Эдмунд Кингсли
Описание: Молодой медицинский работник Эдвард устраивается работать в психиатрическую лечебницу. Вскоре становится известно об исчезновении одного из лечащих врачей психушки. Эдвард обнаруживает, что его похитили пациенты больницы, а вскоре и вся психушка оказывается захвачена ими...



Качество: HDRip рип с BDRip 720p
Формат: MP4
Видео: AVC at 679 Kbps, 640 x 272 (2.395) at 23.976 fps
Аудио: AAC at 128 Kbps, 2 channels, 48.0 KHz
GeneralComplete name : G:\Обитель проклятых (2014) 640х.mp4Format : MPEG-4Format profile : Base MediaCodec ID : isomFile size : 656 MiBDuration : 1h 52mnOverall bit rate mode : VariableOverall bit rate : 814 KbpsMovie name : Stonehearst Asylum (2014) [rutracker]Encoded date : UTC 2014-12-07 02:30:52Tagged date : UTC 2014-12-07 02:31:15Writing application : MkvToMp4 version: 0.224 (x64)Comment : Обитель проклятых / Stonehearst Asylum (2014) [by Alien.09]stik : 9iTunEXTC : ru-movie|18+|400|

VideoID : 1Format : AVCFormat/Info : Advanced Video CodecFormat profile : [email protected] settings, CABAC : YesFormat settings, ReFrames : 3 framesCodec ID : avc1Codec ID/Info : Advanced Video CodingDuration : 1h 52mnBit rate : 679 KbpsMaximum bit rate : 3 606 KbpsWidth : 640 pixelsHeight : 272 pixelsDisplay aspect ratio : 2.40:1Frame rate mode : ConstantFrame rate : 23.976 fpsColor space : YUVChroma subsampling : 4:2:0Bit depth : 8 bitsScan type : ProgressiveBits/(Pixel*Frame) : 0.163Stream size : 547 MiB (83%)Writing library : x264 core 125 r2200M 999b753Encoding settings : cabac=1 / ref=3 / deblock=1:0:0 / analyse=0x1:0x131 / me=hex / subme=7 / psy=1 / psy_rd=1.00:0.20 / mixed_ref=1 / me_range=16 / chroma_me=1 / trellis=1 / 8x8dct=0 / cqm=0 / deadzone=21,11 / fast_pskip=1 / chroma_qp_offset=-3 / threads=4 / lookahead_threads=1 / sliced_threads=0 / nr=0 / decimate=1 / interlaced=0 / bluray_compat=0 / constrained_intra=0 / bframes=3 / b_pyramid=0 / b_adapt=2 / b_bias=0 / direct=3 / weightb=1 / open_gop=0 / weightp=0 / keyint=230 / keyint_min=23 / scenecut=40 / intra_refresh=0 / rc_lookahead=40 / rc=2pass / mbtree=1 / bitrate=679 / ratetol=1.0 / qcomp=0.60 / qpmin=10 / qpmax=51 / qpstep=4 / cplxblur=20.0 / qblur=0.5 / vbv_maxrate=5000 / vbv_bufsize=1835 / nal_hrd=none / ip_ratio=1.40 / aq=1:1.00Language : EnglishEncoded date : UTC 2014-12-07 02:30:52Tagged date : UTC 2014-12-07 02:31:01

AudioID : 2Format : AACFormat/Info : Advanced Audio CodecFormat profile : LCCodec ID : 40Duration : 1h 52mnBit rate mode : VariableBit rate : 128 KbpsMaximum bit rate : 168 KbpsChannel(s) : 2 channelsChannel positions : Front: L RSampling rate : 48.0 KHzCompression mode : LossyStream size : 103 MiB (16%)Language : RussianEncoded date : UTC 2014-12-07 02:30:58Tagged date : UTC 2014-12-07 02:31:01


Трекер:  [ 07-Дек-2014 06:30 ]

  

Скачать .torrent

Размер .torrent файла 13 KB


Размер: 656 MB
Хэш (hash) релиза: 940ecf00ce9875e49d197a777d1eff7ed98d7081

Еще никто не оставлял запись к записи скачать торрент [VIDEO] Обитель проклятых Eliza Graves . Будь первым!

!Обратная связь