Paul Stanley - Kiss: Paul Stanley | Accused – Eine Frage der Schuld | Baki (2018)

Скачать через торрент [VIDEO] Торжественный финал Grand Piano бесплатно русская версия torrent активатор

Статистика раздачи
Размер:  676 MB   |    Зарегистрирован:  3 года 7 месяцев   |    .torrent скачан:  32 раза   |   
Раздают:  1  
   
загрузка...
 
Автор Сообщение

Galfimbul

avatar Galfimbul


Торжественный финал
Grand Piano

Год выпуска: 2013
Страна: Испания (Antena 3 Films, Grand Piano Productions, Nostromo Canarias 1 AIE)
Жанр: Триллер
Продолжительность: 01:30:06
Перевод: Профессиональный (многоголосый, закадровый)
Оригинальная дорожка: Нет
Cубтитры: Нет
Режиссер: Эухенио Мира / Eugenio Mira
В ролях: Элайджа Вуд, Джон Кьюсак, Аллен Лич, Тэмсин Эгертон, Керри Бише, Ди Уоллес-Стоун, Алекс Уинтер, Дон МакМанус, Дон Кресс, Кристофер Калер
Описание: Том Селзник — молодой талантливый пианист, которому удалось добиться большого успеха и стать популярным. Он начал вести активную концертную деятельность и все шло прекрасно, пока им не завладело чувство страха перед большой сценой. Том был вынужден отменить все концерты и начать жизнь обычного человека. Однако он продолжал находиться под пристальным наблюдением журналистов, поскольку был женат на известной актрисе. Прошло несколько лет, и Том решил вновь вернуться на сцену, для чего организовал концерт в одном из оперных театров Нью-Йорка. Публика давно ждала возвращения виртуозного пианиста, поэтому весь зал был заполнен до отказа. Однако Тома ожидает очень непростое выступление, ведь каждый раз, переворачивая страницы нотной тетради, он видит требования неизвестного человека, в случае невыполнения которых в зале могут появиться жертвы...

Качество: HDRip (Рип с BDRip 1080p)
Формат: MP4
Видео: AVC, 960x400 (2.40:1), 912 kbps, 23.976 fps
Аудио: Русский, AAC, 2 ch, 48 kHz, 128 kbps [MVO]
x264 [info]: frame I:940 Avg QP:15.15 size: 43129
x264 [info]: frame P:28740 Avg QP:18.78 size: 10897
x264 [info]: frame B:99992 Avg QP:21.82 size: 2631

x264 [total]: encoded 129672 frames, 10.00 fps, 912.30 kb/s
General
Complete name : [VIDEO] Torjestvennyi.final.2013.HDRip.x264.960x(semen_52-TNC).mp4
Format : MPEG-4
Format profile : Base Media
Codec ID : isom
File size : 676 MiB
Duration : 1h 30mn
Overall bit rate mode : Variable
Overall bit rate : 1 048 Kbps
Movie name : [VIDEO] Torjestvennyi final 2013 HDRip x264 960x(semen_52-TNC)
ContentType : Short Film
Encoded date : UTC 2014-12-05 16:53:53
Tagged date : UTC 2014-12-05 16:55:30
Writing application : MkvToMp4 version: 0.224 (x64)
Comment : Rip by semen_52-TNC

Video
ID : 1
Format : AVC
Format/Info : Advanced Video Codec
Format profile : [email protected]
Format settings, CABAC : Yes
Format settings, ReFrames : 8 frames
Codec ID : avc1
Codec ID/Info : Advanced Video Coding
Duration : 1h 30mn
Bit rate : 912 Kbps
Maximum bit rate : 4 036 Kbps
Width : 960 pixels
Height : 400 pixels
Display aspect ratio : 2.40:1
Frame rate mode : Constant
Frame rate : 23.976 fps
Color space : YUV
Chroma subsampling : 4:2:0
Bit depth : 8 bits
Scan type : Progressive
Bits/(Pixel*Frame) : 0.099
Stream size : 588 MiB (87%)
Writing library : x264 core 130 r2273 b3065e6
Encoding settings : cabac=1 / ref=8 / deblock=1:-3:-3 / analyse=0x3:0x133 / me=esa / subme=9 / psy=1 / psy_rd=1.00:0.00 / mixed_ref=1 / me_range=32 / chroma_me=1 / trellis=2 / 8x8dct=1 / cqm=0 / deadzone=21,11 / fast_pskip=0 / chroma_qp_offset=-2 / threads=12 / lookahead_threads=2 / sliced_threads=0 / nr=0 / decimate=1 / interlaced=0 / bluray_compat=0 / constrained_intra=0 / bframes=10 / b_pyramid=2 / b_adapt=2 / b_bias=0 / direct=1 / weightb=1 / open_gop=0 / weightp=2 / keyint=250 / keyint_min=25 / scenecut=40 / intra_refresh=0 / rc_lookahead=60 / rc=crf / mbtree=1 / crf=19.0 / qcomp=0.60 / qpmin=0 / qpmax=69 / qpstep=4 / ip_ratio=1.40 / aq=1:0.90
Language : English
Encoded date : UTC 2014-12-05 16:53:53
Tagged date : UTC 2014-12-05 16:54:23

Audio
ID : 2
Format : AAC
Format/Info : Advanced Audio Codec
Format profile : LC
Codec ID : 40
Duration : 1h 30mn
Bit rate mode : Variable
Bit rate : 128 Kbps
Maximum bit rate : 135 Kbps
Channel(s) : 2 channels
Channel positions : Front: L R
Sampling rate : 48.0 KHz
Compression mode : Lossy
Stream size : 82.5 MiB (12%)
Title : MVO
Language : Russian
Encoded date : UTC 2014-12-05 16:54:04
Tagged date : UTC 2014-12-05 16:54:23


Трекер:  [ 06-Дек-2014 22:00 ]

  

Скачать .torrent

Размер .torrent файла 13 KB


Размер: 676 MB
Хэш (hash) релиза: be57fe40d04d8cbd2ecbe8b3f49db6ee2aaf2249

Еще никто не оставлял запись к записи скачать торрент [VIDEO] Торжественный финал Grand Piano . Будь первым!

!Обратная связь