gta san andreas | Thriller | Good Housekeeping April 2012

Скачать через торрент [VIDEO] Типа копы Lets Be Cops бесплатно русская версия torrent активатор

Статистика раздачи
Размер:  1.24 GB   |    Зарегистрирован:  3 года 7 месяцев   |    .torrent скачан:  52 раза   |   
Раздают:  1  
   
загрузка...
 
Автор Сообщение

Galfimbul

avatar Galfimbul


Типа копы
Let's Be Cops

Год выпуска: 2014
Страна: США (20th Century Fox Film Corporation, Genre Films, WideAwake)
Жанр: Боевик, комедия
Продолжительность: 01:44:28
Перевод: Профессиональный (дублированный)
Оригинальная дорожка: Английский
Cубтитры: Русские, полные, отключаемые
Режиссер: Люк Гринфилд / Luke Greenfield
В ролях: Дэймон Уайанс мл., Джейк Джонсон, Роб Риггл, Нина Добрев, Джеймс Д’Арси, Энди Гарсиа, Анджела Кереч, Кинг, Либби Блэнтон, Кигэн-Майкл Ки
Описание: Двое приятелей переодеваются в полицейских для костюмированной вечеринки, в результате чего они становятся местной сенсацией. Но затем по стечению обстоятельств они впутываются в дела реальных бандитов и грязных детективов…

Качество: HDRip (Рип с BDRip 1080p)
Формат: MP4
Видео: AVC, 960x520 (1.85:1), 1436 kbps, 23.976 fps
Аудио 1: Русский, AAC, 2 ch, 48 kHz, 128 kbps [Dub]
Аудио 2: Английский, AAC, 2 ch, 48 kHz, 128 kbps [Original]
Джейк Джонсон, Дэймон Уайанс мл., Джон Лажуа, Роб Риггл и Кигэн-Майкл Ки, каждый из которых является стендап-комиком, импровизировали большую часть своих диалогов.
Когда герои приехали на слежку за мафиози, они были на красной машине. А в погоню за грузовиком они поехали уже на полицейской машине.
Несколько раз в течение фильма герои стреляют из огнестрельного оружия в маленьких закрытых помещениях, не имея средств защиты для органов слуха. Это должно было бы вызвать у них потерю слуха.
Когда Райан в первый раз играет в футбол с детьми, его толстовка вывернута наизнанку. Спустя некоторое время она уже вывернута нормально.
Многие сотрудники полиции в фильме держат оружие, прижав палец к спусковому крючку, — эту ошибку не допустит ни один реальный сотрудник правоохранительных органов.
Когда персонаж Джейка Джонсона практикует технику самообороны с ребенком, на его одежде видны сержантские нашивки. В следующей сцене, во время патрулирования, этих нашивок уже нет. А до сержанта он «повышается» во время патрулирования в следующий день.
В фильме демонстрируется штурмовая винтовка Heckler & Koch G36, которая якобы похищена из департамента полиции Лос-Анджелеса. Только два отделения полиции в США используют такие винтовки — в Балтиморе и полиция Капитолия. Крайне маловероятно, что эта винтовка была в распоряжении департамента полиции Лос-Анджелеса.
Когда на 56 минуте «мексиканец» плюет в чернокожего копа, то у «мексиканца» в этот момент нет вставных золотых зубов. Во время пыток водой они появляются.
x264 [info]: frame I:1941 Avg QP:16.64 size: 73699
x264 [info]: frame P:36532 Avg QP:20.19 size: 15415
x264 [info]: frame B:111815 Avg QP:23.23 size: 3746

x264 [total]: encoded 150288 frames, 8.16 fps, 1435.89 kb/s
General
Complete name : [VIDEO] Lets.Be.Cops.2014.HDRip.x264.960x(semen_52-TNC).mp4
Format : MPEG-4
Format profile : Base Media
Codec ID : isom
File size : 1.24 GiB
Duration : 1h 44mn
Overall bit rate mode : Variable
Overall bit rate : 1 703 Kbps
Movie name : [VIDEO] Lets Be Cops 2014 HDRip x264 960x(semen_52-TNC)
ContentType : Short Film
Encoded date : UTC 2014-12-05 16:50:01
Tagged date : UTC 2014-12-05 16:53:14
Writing application : MkvToMp4 version: 0.224 (x64)
Comment : Rip by semen_52-TNC

Video
ID : 1
Format : AVC
Format/Info : Advanced Video Codec
Format profile : [email protected]
Format settings, CABAC : Yes
Format settings, ReFrames : 8 frames
Codec ID : avc1
Codec ID/Info : Advanced Video Coding
Duration : 1h 44mn
Bit rate : 1 436 Kbps
Maximum bit rate : 8 809 Kbps
Width : 960 pixels
Height : 520 pixels
Display aspect ratio : 1.85:1
Frame rate mode : Constant
Frame rate : 23.976 fps
Color space : YUV
Chroma subsampling : 4:2:0
Bit depth : 8 bits
Scan type : Progressive
Bits/(Pixel*Frame) : 0.120
Stream size : 1.05 GiB (84%)
Writing library : x264 core 130 r2273 b3065e6
Encoding settings : cabac=1 / ref=8 / deblock=1:-3:-3 / analyse=0x3:0x133 / me=esa / subme=9 / psy=1 / psy_rd=1.00:0.15 / mixed_ref=1 / me_range=32 / chroma_me=1 / trellis=2 / 8x8dct=1 / cqm=0 / deadzone=21,11 / fast_pskip=0 / chroma_qp_offset=-3 / threads=12 / lookahead_threads=2 / sliced_threads=0 / nr=0 / decimate=1 / interlaced=0 / bluray_compat=0 / constrained_intra=0 / bframes=9 / b_pyramid=2 / b_adapt=2 / b_bias=0 / direct=1 / weightb=1 / open_gop=0 / weightp=2 / keyint=250 / keyint_min=25 / scenecut=40 / intra_refresh=0 / rc_lookahead=60 / rc=crf / mbtree=1 / crf=20.0 / qcomp=0.60 / qpmin=0 / qpmax=69 / qpstep=4 / ip_ratio=1.40 / aq=1:0.90
Language : English
Encoded date : UTC 2014-12-05 16:50:01
Tagged date : UTC 2014-12-05 16:51:10

Audio #1
ID : 2
Format : AAC
Format/Info : Advanced Audio Codec
Format profile : LC
Codec ID : 40
Duration : 1h 44mn
Bit rate mode : Variable
Bit rate : 128 Kbps
Maximum bit rate : 134 Kbps
Channel(s) : 2 channels
Channel positions : Front: L R
Sampling rate : 48.0 KHz
Compression mode : Lossy
Stream size : 95.6 MiB (8%)
Title : Dub
Language : Russian
Encoded date : UTC 2014-12-05 16:50:17
Tagged date : UTC 2014-12-05 16:51:10

Audio #2
ID : 3
Format : AAC
Format/Info : Advanced Audio Codec
Format profile : LC
Codec ID : 40
Duration : 1h 44mn
Bit rate mode : Variable
Bit rate : 128 Kbps
Maximum bit rate : 135 Kbps
Channel(s) : 2 channels
Channel positions : Front: L R
Sampling rate : 48.0 KHz
Compression mode : Lossy
Stream size : 95.6 MiB (8%)
Title : Original
Language : English
Encoded date : UTC 2014-12-05 16:50:36
Tagged date : UTC 2014-12-05 16:51:10

Text
ID : 4
Format : Timed Text
Muxing mode : sbtl
Codec ID : tx3g
Duration : 1h 44mn
Bit rate mode : Variable
Bit rate : 142 bps
Stream size : 109 KiB (0%)
Title : Full
Language : Russian
Encoded date : UTC 2014-12-05 16:51:09
Tagged date : UTC 2014-12-05 16:51:10


Трекер:  [ 06-Дек-2014 19:00 ]

  

Скачать .torrent

Размер .torrent файла 13 KB


Размер: 1.24 GB
Хэш (hash) релиза: fd678e3de7d9211f4899f9e6630c30ee50ef6a88

Еще никто не оставлял запись к записи скачать торрент [VIDEO] Типа копы Lets Be Cops . Будь первым!

!Обратная связь