madlib j dilla, | Achievements | Hotel Transylvania 3: Summer Vacation CAM

Скачать через торрент [VIDEO] Если я останусь If I Stay бесплатно русская версия torrent активатор

Статистика раздачи
Размер:  989 MB   |    Зарегистрирован:  3 года 7 месяцев   |    .torrent скачан:  42 раза   |   
Раздают:  1  
   
загрузка...
 
Автор Сообщение

Galfimbul

avatar Galfimbul


Если я останусь
If I Stay

Год выпуска: 2014
Страна: США (DiNovi Pictures, Metro-Goldwyn-Mayer (MGM), New Line Cinema)
Жанр: Драма, экранизация
Продолжительность: 01:46:40
Перевод: Профессиональный (дублированный)
Оригинальная дорожка: Английский
Cубтитры: Русские, полные, отключаемые
Режиссер: Р.Дж. Катлер / R.J. Cutler
В ролях: Клои Грэйс Моретц, Мирей Инос, Джейми Блэкли, Джошуа Леонард, Лиана Либерато, Стейси Кич, Габриель Роз, Джейкоб Дейвис, Али Милнер, Аиша Хиндс
Описание: Мия — талантливая девушка, влюбленная в классическую музыку, в свою виолончель и рокера Адама. Но после автокатастрофы Мия оказывается в коме. Пока тело девушки лежит в больнице, ее душа должна решить, хочет ли она жить дальше или же лучше отправиться в мир иной вслед за своими родными.

Качество: HDRip (Рип с BDRip 1080p)
Формат: MP4
Видео: AVC, 960x400 (2.40:1), 1029 kbps, 23.976 fps
Аудио 1: Русский, AAC, 2 ch, 48 kHz, 128 kbps [Dub]
Аудио 2: Английский, AAC, 2 ch, 48 kHz, 128 kbps [Dub]
Фильм снят по мотивам романа Гейл Форман «Если я останусь» (If I Stay, 2009).
x264 [info]: frame I:1221 Avg QP:14.96 size: 61038
x264 [info]: frame P:30816 Avg QP:18.22 size: 13735
x264 [info]: frame B:121413 Avg QP:21.04 size: 2681

x264 [total]: encoded 153450 frames, 10.65 fps, 1029.18 kb/s
General
Complete name : [VIDEO] If.I.Stay.2014.HDRip.x264.960x(semen_52-TNC).mp4
Format : MPEG-4
Format profile : Base Media
Codec ID : isom
File size : 989 MiB
Duration : 1h 46mn
Overall bit rate mode : Variable
Overall bit rate : 1 296 Kbps
Movie name : [VIDEO] If I Stay 2014 HDRip x264 960x(semen_52-TNC)
ContentType : Short Film
Encoded date : UTC 2014-12-05 17:10:47
Tagged date : UTC 2014-12-05 17:13:39
Writing application : MkvToMp4 version: 0.224 (x64)
Comment : Rip by semen_52-TNC

Video
ID : 1
Format : AVC
Format/Info : Advanced Video Codec
Format profile : [email protected]
Format settings, CABAC : Yes
Format settings, ReFrames : 8 frames
Codec ID : avc1
Codec ID/Info : Advanced Video Coding
Duration : 1h 46mn
Bit rate : 1 029 Kbps
Maximum bit rate : 13.8 Mbps
Width : 960 pixels
Height : 400 pixels
Display aspect ratio : 2.40:1
Frame rate mode : Constant
Frame rate : 23.976 fps
Color space : YUV
Chroma subsampling : 4:2:0
Bit depth : 8 bits
Scan type : Progressive
Bits/(Pixel*Frame) : 0.112
Stream size : 785 MiB (79%)
Writing library : x264 core 130 r2273 b3065e6
Encoding settings : cabac=1 / ref=8 / deblock=1:-3:-3 / analyse=0x3:0x133 / me=esa / subme=9 / psy=1 / psy_rd=1.00:0.15 / mixed_ref=1 / me_range=32 / chroma_me=1 / trellis=2 / 8x8dct=1 / cqm=0 / deadzone=21,11 / fast_pskip=0 / chroma_qp_offset=-3 / threads=12 / lookahead_threads=2 / sliced_threads=0 / nr=0 / decimate=1 / interlaced=0 / bluray_compat=0 / constrained_intra=0 / bframes=9 / b_pyramid=2 / b_adapt=2 / b_bias=0 / direct=1 / weightb=1 / open_gop=0 / weightp=2 / keyint=250 / keyint_min=25 / scenecut=40 / intra_refresh=0 / rc_lookahead=60 / rc=crf / mbtree=1 / crf=19.0 / qcomp=0.60 / qpmin=0 / qpmax=69 / qpstep=4 / ip_ratio=1.40 / aq=1:1.00
Language : English
Encoded date : UTC 2014-12-05 17:10:47
Tagged date : UTC 2014-12-05 17:11:42

Audio #1
ID : 2
Format : AAC
Format/Info : Advanced Audio Codec
Format profile : LC
Codec ID : 40
Duration : 1h 46mn
Bit rate mode : Variable
Bit rate : 128 Kbps
Maximum bit rate : 135 Kbps
Channel(s) : 2 channels
Channel positions : Front: L R
Sampling rate : 48.0 KHz
Compression mode : Lossy
Stream size : 97.7 MiB (10%)
Title : Dub
Language : Russian
Encoded date : UTC 2014-12-05 17:11:01
Tagged date : UTC 2014-12-05 17:11:42

Audio #2
ID : 3
Format : AAC
Format/Info : Advanced Audio Codec
Format profile : LC
Codec ID : 40
Duration : 1h 46mn
Bit rate mode : Variable
Bit rate : 128 Kbps
Maximum bit rate : 135 Kbps
Channel(s) : 2 channels
Channel positions : Front: L R
Sampling rate : 48.0 KHz
Compression mode : Lossy
Stream size : 97.7 MiB (10%)
Title : Original
Language : English
Encoded date : UTC 2014-12-05 17:11:26
Tagged date : UTC 2014-12-05 17:11:42

Text
ID : 4
Format : Timed Text
Muxing mode : sbtl
Codec ID : tx3g
Duration : 1h 40mn
Bit rate mode : Variable
Bit rate : 90 bps
Stream size : 66.0 KiB (0%)
Title : Full
Language : Russian
Encoded date : UTC 2014-12-05 17:11:42
Tagged date : UTC 2014-12-05 17:11:42


Трекер:  [ 06-Дек-2014 18:30 ]

  

Скачать .torrent

Размер .torrent файла 20 KB


Размер: 989 MB
Хэш (hash) релиза: 0c121a78ca35cbe16fd8aa4e55ca2851c7374351

Еще никто не оставлял запись к записи скачать торрент [VIDEO] Если я останусь If I Stay . Будь первым!

!Обратная связь