Terry Kyle and Matt Carter SEO Experts Academy New Links | Craquez pour les sauces et marinades ! | Allo, Allo

Скачать через торрент [VIDEO] Новогодний календарь бесплатно русская версия torrent активатор

Статистика раздачи
Размер:  361 MB   |    Зарегистрирован:  3 года 7 месяцев   |    .torrent скачан:  36 раз   |   
Раздают:  1  
   
загрузка...
 
Автор Сообщение

Galfimbul

avatar Galfimbul


Новогодний календарь



Год выпуска: 1965
Страна: СССР, Первый канал
Жанр: Новогодний концерт
Продолжительность: 01:01:58
Перевод: Не требуется
Cубтитры: нет
В ролях: Лариса Мондрус, братья Сазоновы, Аркадий Райкин, Павел Рудаков, Станислав Лавров, Иосиф Кобзон, Людмила Зыкина, Дин Рид, Лариса Голубкина, Муслим Магомаев, Олег Попов, Мирей Матье, Майя Кристалинская, Эдуард Хиль, Марк Бернес, Серго Закариадзе, Вероника Круглова, Полад Бюль-Бюль Оглы, Клавдия Шульженко, Николай Сличенко, Ирина Бржевская, Юрий Тимошенко, Ефим Березин, Лев Барашков
Описание: Первый канал подарил вторую жизнь любимой передаче "Голубой огонек". В праздничные дни "Голубые
огоньки" 60-х годов зрители смогут увидеть в новом отреставрированном варианте и уже не в черно-белом
варианте, а цветном. Гостями этих программ были: первый космонавт Юрий Гагарин, Георгий Вицин, Юрий
Никулин и Евгений Моргунов (знаменитые герои Трус, Балбес и Бывалый в кинокомедиях Леонида Гайдая), а
также Людмила Зыкина и Иосиф Кобзон.

Сложность в реставрации программы заключалась в том, что в те годы телевизионные программы не
архивировались, не сохранилось негативов - остались только записи, снятые на пленку с мониторов. Качество
изображения было гораздо хуже, чем у довоенных фильмов, пришлось убирать большое количество бликов.

История "Голубых огоньков" - это история СССР и России. "Голубые огоньки" объединяли нашу страну на
протяжении многих лет. Каждый Новый год с 1962 года все жители нашей страны собирались у экранов, чтобы
увидеть своих любимых артистов, певцов, а также простых тружеников и всенародно любимых космонавтов,
которые в 60-е годы были гораздо популярнее звезд эстрады.

"Голубой огонек" ведет свою историю с апреля 1962, когда советское телевидение начало показ программы
"Телевизионное кафе". Передачу переименовали в "На огонек", затем в "На голубой огонек" и, наконец, в "Голубой
огонек". Программа снималась в прямом эфире. За столиками кафе собирались все участники - и выступающие
актеры, и приглашенные участники - космонавты, герои труда, военные, советские ткачихи, колхозники,
рабочие.

Исходник (ссылка): [url]...2611536[/url]
Лариса Мондрус - "Мой милый фантазёр"
Братья Сазоновы - "Чечётка"
Аркадий Райкин - "Интермедия"
Ансамбль "Аккорд" - "Пингвины"
Павел Рудаков, Станислав Лавров - "Новогодние тосты"
Иосиф Кобзон - "На тебе сошёлся клином белый свет"
Людмила Зыкина - "Зимняя дорожка"
Дин Рид - "Элизабет"
Лариса Голубкина - "Записка"
Муслим Магомаев - "Солнцем опьянённый"
Олег Попов - "Не в своей тарелке"
Мирей Матье - "Nous on s aimera"
Майя Кристалинская - "Аист"
Эдуард Хиль - "Это было недавно, это было давно"
Серго Закариадзе
Марк Бернес - "С чего начинается Родина"
Вероника Круглова - "Ничего не вижу"
Полад Бюль-Бюль Оглы - "Шейк"
Клавдия Шульженко - "Бабье лето"
Николай Сличенко - "Очи чёрные"
Ирина Бржевская - "Это так хорошо"
Юрий Тимошенко, Ефим Березин - "Выступление Тарапуньки и Штепселя"
Лев Барашков - "Обнимая небо"
Качество: SATRip
Формат: MP4
Видео: AVC at 679 Kbps, 480 x 360 (1.304) at 25.000 fps
Аудио: AAC at 128 Kbps, 2 channels, 48.0 KHz
GeneralComplete name : G:\Новогодний календарь (1965) 640х.mp4Format : MPEG-4Format profile : Base MediaCodec ID : isomFile size : 361 MiBDuration : 1h 1mnOverall bit rate mode : VariableOverall bit rate : 815 KbpsMovie name : Новогодний календарь (1965) [rutracker]Genre : MusicalEncoded date : UTC 2014-12-05 17:22:28Tagged date : UTC 2014-12-05 17:22:38Writing application : MkvToMp4 version: 0.224 (x64)Comment : [by Alien.09]stik : 9iTunEXTC : ru-movie|0+|100|

VideoID : 1Format : AVCFormat/Info : Advanced Video CodecFormat profile : [email protected] settings, CABAC : YesFormat settings, ReFrames : 3 framesCodec ID : avc1Codec ID/Info : Advanced Video CodingDuration : 1h 1mnBit rate : 679 KbpsMaximum bit rate : 2 878 KbpsWidth : 480 pixelsHeight : 360 pixelsDisplay aspect ratio : 4:3Frame rate mode : ConstantFrame rate : 25.000 fpsColor space : YUVChroma subsampling : 4:2:0Bit depth : 8 bitsScan type : ProgressiveBits/(Pixel*Frame) : 0.157Stream size : 301 MiB (83%)Writing library : x264 core 125 r2200M 999b753Encoding settings : cabac=1 / ref=3 / deblock=1:0:0 / analyse=0x1:0x131 / me=hex / subme=7 / psy=1 / psy_rd=1.00:0.20 / mixed_ref=1 / me_range=16 / chroma_me=1 / trellis=1 / 8x8dct=0 / cqm=0 / deadzone=21,11 / fast_pskip=1 / chroma_qp_offset=-3 / threads=4 / lookahead_threads=1 / sliced_threads=0 / nr=0 / decimate=1 / interlaced=0 / bluray_compat=0 / constrained_intra=0 / bframes=3 / b_pyramid=0 / b_adapt=2 / b_bias=0 / direct=3 / weightb=1 / open_gop=0 / weightp=0 / keyint=250 / keyint_min=25 / scenecut=40 / intra_refresh=0 / rc_lookahead=40 / rc=2pass / mbtree=1 / bitrate=679 / ratetol=1.0 / qcomp=0.60 / qpmin=10 / qpmax=51 / qpstep=4 / cplxblur=20.0 / qblur=0.5 / vbv_maxrate=5000 / vbv_bufsize=1835 / nal_hrd=none / ip_ratio=1.40 / aq=1:1.00Language : EnglishEncoded date : UTC 2014-12-05 17:22:28Tagged date : UTC 2014-12-05 17:22:33

AudioID : 2Format : AACFormat/Info : Advanced Audio CodecFormat profile : LCCodec ID : 40Duration : 1h 1mnBit rate mode : VariableBit rate : 128 KbpsMaximum bit rate : 152 KbpsChannel(s) : 2 channelsChannel positions : Front: L RSampling rate : 48.0 KHzCompression mode : LossyStream size : 56.7 MiB (16%)Language : RussianEncoded date : UTC 2014-12-05 17:22:31Tagged date : UTC 2014-12-05 17:22:33


Трекер:  [ 05-Дек-2014 21:00 ]

  

Скачать .torrent

Размер .torrent файла 14 KB


Размер: 361 MB
Хэш (hash) релиза: f71cbe4fbf2d7e705bbbbe54dd2b6b4a74dafe7c

Еще никто не оставлял запись к записи скачать торрент [VIDEO] Новогодний календарь . Будь первым!

!Обратная связь