My Secret Romance | Юмористическая проза | classique Cliquez pour regarder

Скачать через торрент [VIDEO] Добро пожаловать в ПОП Pop Redemption бесплатно русская версия torrent активатор

Статистика раздачи
Размер:  1.08 GB   |    Зарегистрирован:  3 года 7 месяцев   |    .torrent скачан:  40 раз   |   
Раздают:  1  
   
загрузка...
 
Автор Сообщение

Galfimbul

avatar Galfimbul


Добро пожаловать в ПОП
Pop Redemption

Год выпуска: 2013
Страна: Франция (22h22, A Plus Image 4, Avalonm Canal+ [fr], Centre National de la Cinématographie (CNC), Ciné, Gaumont, Jouror Distribution, Région Aquitaine, Région Midi-Pyrénées)
Жанр: Комедия
Продолжительность: 01:34:32
Перевод: Профессиональный (многоголосый, закадровый)
Оригинальная дорожка: Нет
Cубтитры: Нет
Режиссер: Мартин Ле Галь / Martin Le Gall
В ролях: Жюльен Доре, Грегори Гадебуа, Джонатан Коэн, Ясин Белусс, Одри Флеро, Александр Астье, Делия Эпина-Диэф, Арсен Моска, Кристоф Курочкин, Винсент Ленардт
Описание: Рокеров со стажем, играющих в стиле блэк-метал, приглашают принять участие в крупном рок-фестивале, проходящем во Франции. Не то чтобы их группа была очень популярной, просто во всей Франции металлистов раз, два и обчелся. Парни решают воспользоваться шансом и тряхнуть стариной. Но в дороге с ним происходит казус — по нелепой случайности в аварии погибает человек. Парни уверены, что теперь им светит тюрьма. Они решают скрыться от полиции, чтобы успеть выступить на фестивале своей мечты. Однако туда еще надо добраться. Для этого им придется отложить в стороны свои рокерские прикиды и резко сменить имидж, выдавая себя за группу хиппи, поющих про любовь и мир во всем мире. А это для брутальных рокеров будет сделать ой как не просто!

Качество: HDRip (Рип с BDRip 720p)
Формат: MP4
Видео: AVC, 960x400 (2.40:1), 1496 kbps, 24.000 fps
Аудио: Русский, AAC, 2 ch, 48 kHz, 128 kbps [MVO]
Последний концерт проходит на фестивале «Hellfest». Некоторые кадры для этой сцены были сняты на реальном концерте.
x264 [info]: frame I:1200 Avg QP:17.36 size: 78895
x264 [info]: frame P:30538 Avg QP:20.85 size: 18880
x264 [info]: frame B:104390 Avg QP:25.03 size: 3728
x264 [info]: consecutive B-frames: 2.2% 2.4% 7.8% 28.6% 17.8% 34.8% 3.5% 1.2% 0.7% 1.0%

x264 [total]: encoded 136128 frames, 10.59 fps, 1495.56 kb/s
General
Complete name : [VIDEO] Dobro.pojalovat.v.POP.2013.HDRip.x264.960x(semen_52-TNC).mp4
Format : MPEG-4
Format profile : Base Media
Codec ID : isom
File size : 1.08 GiB
Duration : 1h 34mn
Overall bit rate mode : Variable
Overall bit rate : 1 631 Kbps
Movie name : [VIDEO] Dobro pojalovat v POP 2013 HDRip x264 960x(semen_52-TNC)
ContentType : Short Film
Encoded date : UTC 2014-12-05 17:07:55
Tagged date : UTC 2014-12-05 17:09:54
Writing application : MkvToMp4 version: 0.224 (x64)
Comment : Rip by semen_52-TNC

Video
ID : 1
Format : AVC
Format/Info : Advanced Video Codec
Format profile : [email protected]
Format settings, CABAC : Yes
Format settings, ReFrames : 8 frames
Codec ID : avc1
Codec ID/Info : Advanced Video Coding
Duration : 1h 34mn
Bit rate : 1 496 Kbps
Maximum bit rate : 18.7 Mbps
Width : 960 pixels
Height : 400 pixels
Display aspect ratio : 2.40:1
Frame rate mode : Constant
Frame rate : 24.000 fps
Color space : YUV
Chroma subsampling : 4:2:0
Bit depth : 8 bits
Scan type : Progressive
Bits/(Pixel*Frame) : 0.162
Stream size : 1 011 MiB (92%)
Writing library : x264 core 130 r2273 b3065e6
Encoding settings : cabac=1 / ref=8 / deblock=1:-3:-3 / analyse=0x3:0x133 / me=esa / subme=9 / psy=1 / psy_rd=1.00:0.15 / mixed_ref=1 / me_range=32 / chroma_me=1 / trellis=2 / 8x8dct=1 / cqm=0 / deadzone=21,11 / fast_pskip=0 / chroma_qp_offset=-3 / threads=12 / lookahead_threads=2 / sliced_threads=0 / nr=0 / decimate=1 / interlaced=0 / bluray_compat=0 / constrained_intra=0 / bframes=9 / b_pyramid=2 / b_adapt=2 / b_bias=0 / direct=1 / weightb=1 / open_gop=0 / weightp=2 / keyint=250 / keyint_min=25 / scenecut=40 / intra_refresh=0 / rc_lookahead=60 / rc=crf / mbtree=1 / crf=20.6 / qcomp=0.60 / qpmin=0 / qpmax=69 / qpstep=4 / ip_ratio=1.40 / aq=1:0.90
Language : English
Encoded date : UTC 2014-12-05 17:07:55
Tagged date : UTC 2014-12-05 17:08:50

Audio
ID : 2
Format : AAC
Format/Info : Advanced Audio Codec
Format profile : LC
Codec ID : 40
Duration : 1h 34mn
Bit rate mode : Variable
Bit rate : 128 Kbps
Maximum bit rate : 132 Kbps
Channel(s) : 2 channels
Channel positions : Front: L R
Sampling rate : 48.0 KHz
Compression mode : Lossy
Stream size : 86.6 MiB (8%)
Title : MVO
Language : Russian
Encoded date : UTC 2014-12-05 17:08:11
Tagged date : UTC 2014-12-05 17:08:50


Трекер:  [ 05-Дек-2014 20:30 ]

  

Скачать .torrent

Размер .torrent файла 11 KB


Размер: 1.08 GB
Хэш (hash) релиза: 19bd468bf19a76b72a746c2755dd319277a0ba7f

Еще никто не оставлял запись к записи скачать торрент [VIDEO] Добро пожаловать в ПОП Pop Redemption . Будь первым!

!Обратная связь