Where Is Kyra (2017) BluRay 1080p DTS-HDMA5.1 x264-MTeam | Chapter 320 | 25 Years

Скачать через торрент [VIDEO] Черепашки-ниндзя Teenage Mutant Ninja Turtles бесплатно русская версия torrent активатор

Статистика раздачи
Размер:  589 MB   |    Зарегистрирован:  3 года 7 месяцев   |    .torrent скачан:  26 раз   |   
Раздают:  1  
   
загрузка...
 
Автор Сообщение

Galfimbul

avatar Galfimbul


Черепашки-ниндзя / Teenage Mutant Ninja Turtles



Год выпуска: 2014
Страна: США
Жанр: фэнтези, боевик, комедия, приключения
Продолжительность: 01:41:18
Перевод: Профессиональный (дублированный) Blu-ray CEE
Cубтитры: нет
Режиссер: Джонатан Либесман / Jonathan Liebesman
В ролях: Меган Фокс, Уилл Арнетт, Уильям Фихтнер, Алан Ричсон, Ноэль Фишер, Пит Пложек, Джонни Ноксвил, Джереми Ховард, Дэнни Вудберн, Тони Шэлуб
Описание: Город нуждается в героях. Тьма окутала Нью-Йорк в виде Шреддера и его зловещего Клана Футов, у которого имеется железный контроль над всеми, от полицейских до политиков. Будущее выглядит мрачным, пока из канализации не поднимается и не раскрывает своё предназначение четвёрка отверженных братьев — Черепашки-ниндзя. Черепашки должны работать вместе с бесстрашным репортёром Эйприл и её саркастическим оператором Верном Фенвиком, чтобы спасти город и разгадать дьявольский план Шреддера.



Качество: HDRip (рип с BDRip 720p)
Формат: MP4
Видео: AVC at 679 Kbps, 640 x 272 (2.395) at 23.976 fps
Аудио: AAC at 128 Kbps, 2 channels, 48.0 KHz
GeneralComplete name : G:\Черепашки-ниндзя (2014) 600х.mp4Format : MPEG-4Format profile : Base MediaCodec ID : isomFile size : 589 MiBDuration : 1h 41mnOverall bit rate mode : VariableOverall bit rate : 813 KbpsMovie name : Teenage Mutant Ninja Turtles (2014) [by Alien.09]Genre : FantasyEncoded date : UTC 2014-12-05 10:19:18Tagged date : UTC 2014-12-05 10:19:38Writing application : MkvToMp4 version: 0.224 (x64)Comment : Черепашки нинзя / Teenage Mutant Ninja Turtles (2014) [rip by Alien.09]stik : 9iTunEXTC : ru-movie|6+|150|

VideoID : 1Format : AVCFormat/Info : Advanced Video CodecFormat profile : [email protected] settings, CABAC : YesFormat settings, ReFrames : 3 framesCodec ID : avc1Codec ID/Info : Advanced Video CodingDuration : 1h 41mnBit rate : 679 KbpsMaximum bit rate : 4 934 KbpsWidth : 640 pixelsHeight : 272 pixelsDisplay aspect ratio : 2.40:1Frame rate mode : ConstantFrame rate : 23.976 fpsColor space : YUVChroma subsampling : 4:2:0Bit depth : 8 bitsScan type : ProgressiveBits/(Pixel*Frame) : 0.163Stream size : 491 MiB (83%)Writing library : x264 core 125 r2200M 999b753Encoding settings : cabac=1 / ref=3 / deblock=1:0:0 / analyse=0x1:0x131 / me=hex / subme=7 / psy=1 / psy_rd=1.00:0.20 / mixed_ref=1 / me_range=16 / chroma_me=1 / trellis=1 / 8x8dct=0 / cqm=0 / deadzone=21,11 / fast_pskip=1 / chroma_qp_offset=-3 / threads=4 / lookahead_threads=1 / sliced_threads=0 / nr=0 / decimate=1 / interlaced=0 / bluray_compat=0 / constrained_intra=0 / bframes=3 / b_pyramid=0 / b_adapt=2 / b_bias=0 / direct=3 / weightb=1 / open_gop=0 / weightp=0 / keyint=230 / keyint_min=23 / scenecut=40 / intra_refresh=0 / rc_lookahead=40 / rc=2pass / mbtree=1 / bitrate=679 / ratetol=1.0 / qcomp=0.60 / qpmin=10 / qpmax=51 / qpstep=4 / cplxblur=20.0 / qblur=0.5 / vbv_maxrate=5000 / vbv_bufsize=1835 / nal_hrd=none / ip_ratio=1.40 / aq=1:1.00Language : EnglishEncoded date : UTC 2014-12-05 10:19:18Tagged date : UTC 2014-12-05 10:19:27

AudioID : 2Format : AACFormat/Info : Advanced Audio CodecFormat profile : LCCodec ID : 40Duration : 1h 41mnBit rate mode : VariableBit rate : 128 KbpsMaximum bit rate : 172 KbpsChannel(s) : 2 channelsChannel positions : Front: L RSampling rate : 48.0 KHzCompression mode : LossyStream size : 92.6 MiB (16%)Language : RussianEncoded date : UTC 2014-12-05 10:19:24Tagged date : UTC 2014-12-05 10:19:27


Трекер:  [ 05-Дек-2014 14:00 ]

  

Скачать .torrent

Размер .torrent файла 12 KB


Размер: 589 MB
Хэш (hash) релиза: 24680ff31c0ae0d767a46cb169e6fb22dff8da80

Торренты, похожие на [VIDEO] Черепашки-ниндзя Teenage Mutant Ninja Turtles скачать торрент

Форум Название Автор Размер S L Добавлен
Видео (Фильмы/Клипы) ·· [VIDEO] Черепашки-ниндзя / Teenage Mutant Ninja Turtles (Джонатан Либесман / Jonathan Liebesman) [2014, США, фантастика, фэнтези, боевик, комедия, приключения, HDRip][MP4, 320x] Dub Galfimbul 372405075355 MB 0 0 1438334908

12:28

31-Июл-15

Видео (Фильмы/Клипы) ·· [VIDEO] Черепашки-ниндзя / Teenage Mutant Ninja Turtles (Джонатан Либесман / Jonathan Liebesman) [2014, США, фантастика, фэнтези, боевик, комедия, приключения, HDRip][MP4, 480x] Dub Galfimbul 489032214466 MB 0 0 1438267191

17:39

30-Июл-15

Видео (Фильмы/Клипы) ·· [VIDEO] Черепашки-ниндзя / Teenage Mutant Ninja Turtles (Джонатан Либесман / Jonathan Liebesman) [2014, фантастика, фэнтези, боевик, комедия, приключения, HDRip] [MP4, 960x] Dub, Original, Sub Rus Galfimbul 15438543491.44 GB 0 0 1419054824

08:53

20-Дек-14

Видео (Фильмы/Клипы) ·· [VIDEO] Черепашки-ниндзя / Teenage Mutant Ninja Turtles (Джонатан Либесман / Jonathan Liebesman) [2014, фэнтези, боевик, комедия, приключения, HDRip] [MP4, 640x] DUB iTunes Russia Galfimbul 618224683590 MB 0 0 1417543764

21:09

2-Дек-14

Видео (Фильмы/Клипы) ·· [VIDEO] Черепашки-ниндзя 2 / Teenage Mutant Ninja Turtles: Out of the Shadows (Дэйв Грин / Dave Green) [2016, фантастика, боевик, комедия, приключения, HDRip] [MP4, 960x] Dub, Original, Sub (rus, eng) Galfimbul 16886590821.57 GB 0 0 1482315225

13:13

21-Дек-16

Видео (Фильмы/Клипы) ·· [VIDEO] Черепашки-ниндзя 2 / Teenage Mutant Ninja Turtles: Out of the Shadows (Дэйв Грин / Dave Green) [2016, фантастика, боевик, комедия, приключения, HDRip] [MP4, 480x] Dub Galfimbul 540919962516 MB 0 0 1482315222

13:13

21-Дек-16

Еще никто не оставлял запись к записи скачать торрент [VIDEO] Черепашки-ниндзя Teenage Mutant Ninja Turtles . Будь первым!

!Обратная связь