24 Season-7 | Follow us on vKontakte | November 2017 (1½

Скачать через торрент [VIDEO] Дракула Dracula Untold бесплатно русская версия torrent активатор

Статистика раздачи
Размер:  866 MB   |    Зарегистрирован:  3 года 8 месяцев   |    .torrent скачан:  61 раз   |   
Раздают:  1  
   
загрузка...
 
Автор Сообщение

Galfimbul

avatar Galfimbul


Dracula UntoldДракула


Год выпуска: 2014
Страна: США
Жанр: ужасы, фэнтези, боевик, драма, военный
Продолжительность: 01:32:10
Перевод: Профессиональный (дублированный) [iTunes Russia]
Режиссер: Гари Шор | Gary Shore

В ролях: Люк Эванс (Luke Evans) | Сара Гадон (Sarah Gadon) | Доминик Купер (Dominic Cooper) | Арт Паркинсон (Art Parkinson) | Чарльз Дэнс (Charles Dance) | Дайармейд Мерта (Diarmaid Murtagh)
Влад Дракула был величайшим правителем, доблестным воином и страстным мужчиной. Но судьба свела его с врагом, коварство которого не знало границ. И тогда Дракула заключил сделку — нечеловеческая сила в обмен на самую малость — бессмертную душу…
Качество: WEB-DLRip ([i]WEB-DLRip 720p)
Формат: MP4
Видео: AVC High L4.1, 960х392 (2.40:1), 1 173 Kbps, 23.976 fps
Аудио: AAC, 2 ch, 48 kHz, 132 Kbps[/i]

x264 [info]: frame I:1408  Avg QP:14.25  size: 46818
x264 [info]: frame P:38740 Avg QP:17.34  size: 11630
x264 [info]: frame B:92429 Avg QP:19.51  size:  3187
x264 [info]: consecutive B-frames:  3.5%  7.2% 10.5% 78.9%
x264 [info]: mb I  I16..4: 13.0% 70.1% 16.9%
x264 [info]: mb P  I16..4:  5.3% 11.5%  1.4%  P16..4: 37.9% 18.6%  9.2%  0.0%  0.0%    skip:16.1%
x264 [info]: mb B  I16..4:  0.7%  1.3%  0.2%  B16..8: 37.6%  7.0%  1.5%  direct: 4.4%  skip:47.4%  L0:39.1% L1:51.1% BI: 9.9%
x264 [info]: 8x8 transform intra:63.1% inter:63.6%
x264 [info]: coded y,uvDC,uvAC intra: 54.2% 64.7% 39.5% inter: 15.1% 21.6% 3.3%
x264 [info]: i16 v,h,dc,p: 51% 19% 10% 21%
x264 [info]: i8 v,h,dc,ddl,ddr,vr,hd,vl,hu: 13%  9% 13%  8% 11% 11% 12% 10% 12%
x264 [info]: i4 v,h,dc,ddl,ddr,vr,hd,vl,hu: 14%  8% 10%  8% 13% 13% 12% 10% 12%
x264 [info]: i8c dc,h,v,p: 52% 22% 16% 11%
x264 [info]: Weighted P-Frames: Y:7.8% UV:3.2%
x264 [info]: ref P L0: 61.3% 10.2% 18.6%  9.1%  0.8%
x264 [info]: ref B L0: 87.5%  9.9%  2.7%
x264 [info]: ref B L1: 95.1%  4.9%
x264 [info]: kb/s:1173.41
encoded 132577 frames, 56.16 fps, 1173.41 kb/s

General
Complete name                            : Z:\Downloads\Dracula Untold.mp4
Format                                   : MPEG-4
Format profile                           : Base Media
Codec ID                                 : isom
File size                                : 866 MiB
Duration                                 : 1h 32mn
Overall bit rate mode                    : Variable
Overall bit rate                         : 1 313 Kbps
Movie name                               : Dracula Untold
ContentType                              : Short Film
Encoded date                             : UTC 2014-12-04 20:31:55
Tagged date                              : UTC 2014-12-04 20:32:26
Writing application                      : MkvToMp4 version: 0.224 (x64)
Cover                                    : Yes
Comment                                  : |TORCHDK|

Video
ID                                       : 1
Format                                   : AVC
Format/Info                              : Advanced Video Codec
Format profile                           : [email protected]
Format settings, CABAC                   : Yes
Format settings, ReFrames                : 4 frames
Codec ID                                 : avc1
Codec ID/Info                            : Advanced Video Coding
Duration                                 : 1h 32mn
Bit rate                                 : 1 173 Kbps
Maximum bit rate                         : 5 030 Kbps
Width                                    : 960 pixels
Height                                   : 392 pixels
Display aspect ratio                     : 2.40:1
Frame rate mode                          : Constant
Frame rate                               : 23.976 fps
Color space                              : YUV
Chroma subsampling                       : 4:2:0
Bit depth                                : 8 bits
Scan type                                : Progressive
Bits/(Pixel*Frame)                       : 0.130
Stream size                              : 773 MiB (89%)
Writing library                          : x264 core 130 r2273 b3065e6
Encoding settings                        : cabac=1 / ref=3 / deblock=1:-2:-1 / analyse=0x3:0x113 / me=umh / subme=9 / psy=1 / psy_rd=1.00:0.00 / mixed_ref=1 / me_range=16 / chroma_me=1 / trellis=2 / 8x8dct=1 / cqm=0 / deadzone=21,11 / fast_pskip=1 / chroma_qp_offset=-2 / threads=12 / lookahead_threads=1 / sliced_threads=0 / nr=0 / decimate=1 / interlaced=0 / bluray_compat=0 / constrained_intra=0 / bframes=3 / b_pyramid=2 / b_adapt=2 / b_bias=0 / direct=1 / weightb=1 / open_gop=0 / weightp=2 / keyint=250 / keyint_min=23 / scenecut=40 / intra_refresh=0 / rc_lookahead=40 / rc=crf / mbtree=1 / crf=18.7 / qcomp=0.60 / qpmin=0 / qpmax=69 / qpstep=4 / ip_ratio=1.40 / aq=1:1.00
Language                                 : English
Encoded date                             : UTC 2014-12-04 20:31:55
Tagged date                              : UTC 2014-12-04 20:32:11

Audio
ID                                       : 2
Format                                   : AAC
Format/Info                              : Advanced Audio Codec
Format profile                           : LC
Codec ID                                 : 40
Duration                                 : 1h 32mn
Bit rate mode                            : Variable
Bit rate                                 : 132 Kbps
Maximum bit rate                         : 193 Kbps
Channel(s)                               : 2 channels
Channel positions                        : Front: L R
Sampling rate                            : 48.0 KHz
Compression mode                         : Lossy
Stream size                              : 86.6 MiB (10%)
Language                                 : Russian
Encoded date                             : UTC 2014-12-04 20:32:08
Tagged date                              : UTC 2014-12-04 20:32:11


Трекер:  [ 05-Дек-2014 01:30 ]

  

Скачать .torrent

Размер .torrent файла 17 KB


Размер: 866 MB
Хэш (hash) релиза: e164fd03a871f6ef182fcd5289398ca7cebcbcf9

Еще никто не оставлял запись к записи скачать торрент [VIDEO] Дракула Dracula Untold . Будь первым!

!Обратная связь