BoJack Horseman | Thirteen | Hotel Artemis (2018) HDRip Xvid .mp4 megavideo Contraseña Gratis

Скачать через торрент [VIDEO] Дракула Dracula Untold бесплатно русская версия torrent активатор

Статистика раздачи
Размер:  537 MB   |    Зарегистрирован:  3 года 7 месяцев   |    .torrent скачан:  34 раза   |   
Раздают:  1  
   
загрузка...
 
Автор Сообщение

Galfimbul

avatar Galfimbul


Дракула / Dracula Untold



Год выпуска: 2014
Страна: США
Жанр: ужасы, фэнтези, боевик, драма, военный
Продолжительность: 01:32:10
Перевод: Профессиональный (дублированный) iTunes Russia
Cубтитры: нет
Режиссер: Гари Шор / Gary Shore
В ролях: Люк Эванс, Сара Гадон, Доминик Купер, Арт Паркинсон, Чарльз Дэнс, Дайармейд Мерта, Пол Кэй, Уильям Хьюстон, Ной Хантли, Ронан Вайберт
Описание: Влад Дракула был величайшим правителем, доблестным воином и страстным мужчиной. Но судьба свела его с врагом, коварство которого не знало границ. И тогда Дракула заключил сделку – нечеловеческая сила в обмен на самую малость – бессмертную душу...



Качество: WEB-DLRip (рип с WEB-DL 720p)
Формат: MP4
Видео: AVC at 679 Kbps, 640 x 272 (2.405) at 23.976 fps
Аудио: AAC at 128 Kbps, 2 channels, 48.0 KHz
GeneralComplete name : G:\Дракула (2014)WEB-DL iTunes Russia 640х.mp4Format : MPEG-4Format profile : Base MediaCodec ID : isomFile size : 537 MiBDuration : 1h 32mnOverall bit rate mode : VariableOverall bit rate : 814 KbpsMovie name : Dracula Untold (2014) WEB-DL iTunes Russia [rutracker]Genre : HorrorEncoded date : UTC 2014-12-04 10:47:50Tagged date : UTC 2014-12-04 10:48:07Writing application : MkvToMp4 version: 0.224 (x64)Comment : Dracula Untold (2014) WEB-DL iTunes Russia [rip by Alien.09]stik : 9iTunEXTC : ru-movie|12+|200|

VideoID : 1Format : AVCFormat/Info : Advanced Video CodecFormat profile : [email protected] settings, CABAC : YesFormat settings, ReFrames : 3 framesCodec ID : avc1Codec ID/Info : Advanced Video CodingDuration : 1h 32mnBit rate : 679 KbpsMaximum bit rate : 3 333 KbpsWidth : 640 pixelsHeight : 272 pixelsDisplay aspect ratio : 2.40:1Frame rate mode : ConstantFrame rate : 23.976 fpsColor space : YUVChroma subsampling : 4:2:0Bit depth : 8 bitsScan type : ProgressiveBits/(Pixel*Frame) : 0.163Stream size : 448 MiB (83%)Writing library : x264 core 125 r2200M 999b753Encoding settings : cabac=1 / ref=3 / deblock=1:0:0 / analyse=0x1:0x131 / me=hex / subme=7 / psy=1 / psy_rd=1.00:0.20 / mixed_ref=1 / me_range=16 / chroma_me=1 / trellis=1 / 8x8dct=0 / cqm=0 / deadzone=21,11 / fast_pskip=1 / chroma_qp_offset=-3 / threads=4 / lookahead_threads=1 / sliced_threads=0 / nr=0 / decimate=1 / interlaced=0 / bluray_compat=0 / constrained_intra=0 / bframes=3 / b_pyramid=0 / b_adapt=2 / b_bias=0 / direct=3 / weightb=1 / open_gop=0 / weightp=0 / keyint=230 / keyint_min=23 / scenecut=40 / intra_refresh=0 / rc_lookahead=40 / rc=2pass / mbtree=1 / bitrate=679 / ratetol=1.0 / qcomp=0.60 / qpmin=10 / qpmax=51 / qpstep=4 / cplxblur=20.0 / qblur=0.5 / vbv_maxrate=5000 / vbv_bufsize=1835 / nal_hrd=none / ip_ratio=1.40 / aq=1:1.00Language : EnglishEncoded date : UTC 2014-12-04 10:47:50Tagged date : UTC 2014-12-04 10:47:57

AudioID : 2Format : AACFormat/Info : Advanced Audio CodecFormat profile : LCCodec ID : 40Duration : 1h 32mnBit rate mode : VariableBit rate : 128 KbpsMaximum bit rate : 203 KbpsChannel(s) : 2 channelsChannel positions : Front: L RSampling rate : 48.0 KHzCompression mode : LossyStream size : 84.2 MiB (16%)Language : RussianEncoded date : UTC 2014-12-04 10:47:55Tagged date : UTC 2014-12-04 10:47:57


Трекер:  [ 04-Дек-2014 14:30 ]

  

Скачать .torrent

Размер .torrent файла 11 KB


Размер: 537 MB
Хэш (hash) релиза: 741e74d33e4c8dd2c71d1705e43372bcb8a8b357

Еще никто не оставлял запись к записи скачать торрент [VIDEO] Дракула Dracula Untold . Будь первым!

!Обратная связь