Amor secreto | Download | Pierrot Plus

Скачать через торрент [MULT] Шайбу! Шайбу! Матч-реванш бесплатно русская версия torrent активатор

Статистика раздачи
Размер:  233 MB   |    Зарегистрирован:  3 года 8 месяцев   |    .torrent скачан:  40 раз   |   
Раздают:  1  
   
загрузка...
 
Автор Сообщение

Galfimbul

avatar Galfimbul


Шайбу! Шайбу! / Матч-реванш



Год выпуска: 1964, 1968
Страна: СССР, киностудия Союзмультфильм
Жанр: мультфильм, спорт, короткометражка, семейный
Продолжительность: 00:20:17; 00;19;37
Перевод: Не требуется
Cубтитры: нет
Режиссер: Борис Дежкин
Описание: в первой части- хоккейный матч между зазнавшимися "мастерами" и дружной командой новичков завершается, конечно, победой скромных и самоотверженных маленьких хоккеистов.

Во второй части- хоккейный матч между командами "Метеор" и "Ракета", уже встречавшимися в фильме "Шайбу! шайбу!".



Качество: DVDRip
Формат: MP4
Видео: AVC at 679 Kbps, 480 x 360 (1.333) at 25.000 fps
Аудио: AAC at 128 Kbps, 2 channels, 48.0 KHz
GeneralComplete name : G:\Шайбу! Шайбу!\01 Шайбу! Шайбу! (1964) 640х.mp4Format : MPEG-4Format profile : Base MediaCodec ID : isomFile size : 118 MiBDuration : 20mn 16sOverall bit rate mode : VariableOverall bit rate : 814 KbpsMovie name : Шайбу! шайбу! (1964) [rutracker]Album : CartoonEncoded date : UTC 2014-12-03 14:46:21Tagged date : UTC 2014-12-03 14:46:25Writing application : MkvToMp4 version: 0.224 (x64)Comment : Шайбу! шайбу! (1964) [rip by Alien.09]hdvd : 0stik : 9

VideoID : 1Format : AVCFormat/Info : Advanced Video CodecFormat profile : [email protected] settings, CABAC : YesFormat settings, ReFrames : 3 framesCodec ID : avc1Codec ID/Info : Advanced Video CodingDuration : 20mn 16sBit rate : 679 KbpsMaximum bit rate : 3 601 KbpsWidth : 480 pixelsHeight : 360 pixelsDisplay aspect ratio : 4:3Frame rate mode : ConstantFrame rate : 25.000 fpsColor space : YUVChroma subsampling : 4:2:0Bit depth : 8 bitsScan type : ProgressiveBits/(Pixel*Frame) : 0.157Stream size : 98.5 MiB (83%)Writing library : x264 core 125 r2200M 999b753Encoding settings : cabac=1 / ref=3 / deblock=1:0:0 / analyse=0x1:0x131 / me=hex / subme=7 / psy=1 / psy_rd=1.00:0.20 / mixed_ref=1 / me_range=16 / chroma_me=1 / trellis=1 / 8x8dct=0 / cqm=0 / deadzone=21,11 / fast_pskip=1 / chroma_qp_offset=-3 / threads=4 / lookahead_threads=1 / sliced_threads=0 / nr=0 / decimate=1 / interlaced=0 / bluray_compat=0 / constrained_intra=0 / bframes=3 / b_pyramid=0 / b_adapt=2 / b_bias=0 / direct=3 / weightb=1 / open_gop=0 / weightp=0 / keyint=250 / keyint_min=25 / scenecut=40 / intra_refresh=0 / rc_lookahead=40 / rc=2pass / mbtree=1 / bitrate=679 / ratetol=1.0 / qcomp=0.60 / qpmin=10 / qpmax=51 / qpstep=4 / cplxblur=20.0 / qblur=0.5 / vbv_maxrate=5000 / vbv_bufsize=1835 / nal_hrd=none / ip_ratio=1.40 / aq=1:1.00Language : EnglishEncoded date : UTC 2014-12-03 14:46:21Tagged date : UTC 2014-12-03 14:46:23

AudioID : 2Format : AACFormat/Info : Advanced Audio CodecFormat profile : LCCodec ID : 40Duration : 20mn 16sBit rate mode : VariableBit rate : 128 KbpsMaximum bit rate : 194 KbpsChannel(s) : 2 channelsChannel positions : Front: L RSampling rate : 48.0 KHzCompression mode : LossyStream size : 18.5 MiB (16%)Language : RussianEncoded date : UTC 2014-12-03 14:46:23Tagged date : UTC 2014-12-03 14:46:23


Трекер:  [ 03-Дек-2014 20:00 ]

  

Скачать .torrent

Размер .torrent файла 18 KB


Размер: 233 MB
Хэш (hash) релиза: 642f8e1c867d7776ed600064e20ffeace8fd99f6

Еще никто не оставлял запись к записи скачать торрент [MULT] Шайбу! Шайбу! Матч-реванш . Будь первым!

!Обратная связь