Vikram Betaal Ki Rahasya Gaatha | Gaya Hijab Mulan Jameela Ini Dibanjiri Protes Warganet | Dok Ruk Rim Tang

Скачать через торрент [VIDEO] Кровавый округ: Трилогия Красный райдинг: Трилогия бесплатно русская версия torrent активатор

Статистика раздачи
Размер:  1.65 GB   |    Зарегистрирован:  3 года 7 месяцев   |    .torrent скачан:  38 раз   |   
Раздают:  1  
   
загрузка...
 
Автор Сообщение

Galfimbul

avatar Galfimbul



Кровавый округ: Трилогия / Красный райдинг: Трилогия
Red Riding: Trilogy
Год выпуска: 2009
Страна: Великобритания
Жанр: Драма, криминал
Продолжительность: 01:46:13, 01:37:29, 01:44:41
Режиссер (часть): Джулиан Джаррольд / Julian Jarrold (1), Джеймс Марш / James Marsh (2), Ананд Такер / Anand Tucker (3)

Кровавый округ: 1974 / Красный райдинг: 1974
Red Riding: 1974

Год выпуска: 2009
Страна: Великобритания (Channel Four Film, Lip Sync Productions, Revolution Films, Screen Yorkshire)
Жанр: Драма, криминал
Продолжительность: 01:46:13
Перевод 1: Профессиональный (многоголосый, закадровый) [R5] ([url=...4535292]отсюда[/url])
Перевод 2: Одноголосый (закадровый) [Александр Райдер (Rider)]
Оригинальная дорожка: Нет
Cубтитры: Нет
Режиссер: Джулиан Джаррольд / Julian Jarrold
В ролях: Эндрю Гарфилд, Дэвид Моррисси, Джон Хеншоу, Энтони Флэнеган, Уоррен Кларк, Дженнифер Хеннесси, Мэри Джо Рэндл, Рэйчел Джейн Аллен, Рита Мэй, Грэхэм Уолкер
Описание: Корреспондент криминальной хроники газеты «Йоркшир пост» Эдвард Данфорд получает задание написать о расследовании таинственного исчезновения десятилетней девочки. Когда ее находят зверски убитой, Данфорд предпринимает собственное расследование. Чем больше вопросов он задаёт, тем глубже погружается в кошмарные тайны человеческих извращений и пороков, которые простираются до высших эшелонов власти.

Качество: HDRip (Рип с [url=...3239322]BDRip 1080p[/url])
Формат: MP4
Видео: XviD, 480х256 (1.85:1), 499 kbps, 23.976 fps
Аудио 1: Русский, AAC, 2 ch, 48 kHz, 128 kbps [MVO, R5]
Аудио 2: Русский, AAC, 2 ch, 48 kHz, 128 kbps [VO, Rider]
General
Complete name : Red.Riding.In.The.Year.Of.Our.Lord.Trilogy.2009.HDRip.XviD.480x(semen_52-TNC)\[VIDEO] Red.Riding.In.The.Year.Of.Our.Lord.1974.2009.HDRip.XviD.480x(semen_52-TNC).mp4
Format : MPEG-4
Format profile : Base Media
Codec ID : isom
File size : 581 MiB
Duration : 1h 46mn
Overall bit rate mode : Variable
Overall bit rate : 764 Kbps
Movie name : [VIDEO] Red Riding In The Year Of Our Lord 1974 HDRip XviD 480x(semen_52-TNC)
ContentType : Short Film
Encoded date : UTC 2014-11-12 17:28:50
Tagged date : UTC 2014-11-12 17:30:48
Writing application : MkvToMp4 version: 0.224 (x64)
Comment : Rip by semen_52-TNC

Video
ID : 1
Format : MPEG-4 Visual
Format profile : Advanced [email protected]
Format settings, BVOP : No
Format settings, QPel : No
Format settings, GMC : No warppoints
Format settings, Matrix : Custom
Codec ID : 20
Duration : 1h 46mn
Bit rate mode : Variable
Bit rate : 499 Kbps
Maximum bit rate : 1 671 Kbps
Width : 480 pixels
Height : 256 pixels
Display aspect ratio : 1.85:1
Frame rate mode : Constant
Frame rate : 23.976 fps
Color space : YUV
Chroma subsampling : 4:2:0
Bit depth : 8 bits
Scan type : Progressive
Compression mode : Lossy
Bits/(Pixel*Frame) : 0.170
Stream size : 379 MiB (65%)
Writing library : XviD 73
Language : English
Tagged date : UTC 2014-11-12 17:29:28

Audio #1
ID : 2
Format : AAC
Format/Info : Advanced Audio Codec
Format profile : LC
Codec ID : 40
Duration : 1h 46mn
Bit rate mode : Variable
Bit rate : 128 Kbps
Maximum bit rate : 132 Kbps
Channel(s) : 2 channels
Channel positions : Front: L R
Sampling rate : 48.0 KHz
Compression mode : Lossy
Stream size : 97.2 MiB (17%)
Title : MVO R5
Language : Russian
Encoded date : UTC 2014-11-12 17:28:53
Tagged date : UTC 2014-11-12 17:29:28

Audio #2
ID : 3
Format : AAC
Format/Info : Advanced Audio Codec
Format profile : LC
Codec ID : 40
Duration : 1h 46mn
Bit rate mode : Variable
Bit rate : 128 Kbps
Maximum bit rate : 135 Kbps
Channel(s) : 2 channels
Channel positions : Front: L R
Sampling rate : 48.0 KHz
Compression mode : Lossy
Stream size : 97.2 MiB (17%)
Title : VO Rider
Language : Russian
Encoded date : UTC 2014-11-12 17:29:13
Tagged date : UTC 2014-11-12 17:29:28


Кровавый округ: 1980 / Красный райдинг: 1980
Red Riding: 1980

Год выпуска: 2009
Страна: Великобритания (Channel Four Film, Lip Sync Productions, Revolution Films, Screen Yorkshire)
Жанр: Драма, криминал
Продолжительность: 01:37:29
Перевод 1: Профессиональный (многоголосый, закадровый) [R5] ([url=...4535292]отсюда[/url])
Перевод 2: Одноголосый (закадровый) [Александр Райдер (Rider)]
Оригинальная дорожка: Нет
Cубтитры: Нет
Режиссер: Джеймс Марш / James Marsh
В ролях: Уоррен Кларк, Пэдди Консидайн, Джеймс Фокс, Дэвид Колдер, Николас Вудесон, Рон Кук, Максин Пик, Тони Питтс, Джим Картер, Дэвид Моррисси
Описание: 1980 год. Вот уже 6 лет в Йоркшире свирепствует маньяк, убивающий молодых женщин. Жители напуганы, в то время как полиция, практически бездействуя, ни на шаг не приблизилась к поимке «Йоркширского Потрошителя». Для проведения тайного расследования действий полиции Йоркшира приглашен помощник начальника полиции Манчестера Питер Хантер. По мере продвижения следствия Хантер все больше убеждается в том, что все это как-то связано с убийствами в клубе «Карачи» в 1974 году…

Качество: HDRip (Рип с [url=...3239619]BDRip 1080p[/url])
Формат: MP4
Видео: XviD, 480х208 (2.35:1), 499 kbps, 23.976 fps
Аудио 1: Русский, AAC, 2 ch, 48 kHz, 128 kbps [MVO, R5]
Аудио 2: Русский, AAC, 2 ch, 48 kHz, 128 kbps [VO, Rider]
General
Complete name : Red.Riding.In.The.Year.Of.Our.Lord.Trilogy.2009.HDRip.XviD.480x(semen_52-TNC)\[VIDEO] Red.Riding.In.The.Year.Of.Our.Lord.1980.2009.HDRip.XviD.480x(semen_52-TNC).mp4
Format : MPEG-4
Format profile : Base Media
Codec ID : isom
File size : 533 MiB
Duration : 1h 37mn
Overall bit rate mode : Variable
Overall bit rate : 764 Kbps
Movie name : [VIDEO] Red Riding In The Year Of Our Lord 1980 HDRip XviD 480x(semen_52-TNC)
ContentType : Short Film
Encoded date : UTC 2014-11-12 17:31:13
Tagged date : UTC 2014-11-12 17:33:42
Writing application : MkvToMp4 version: 0.224 (x64)
Comment : Rip by semen_52-TNC

Video
ID : 1
Format : MPEG-4 Visual
Format profile : Advanced [email protected]
Format settings, BVOP : No
Format settings, QPel : No
Format settings, GMC : No warppoints
Format settings, Matrix : Custom
Codec ID : 20
Duration : 1h 37mn
Bit rate mode : Variable
Bit rate : 499 Kbps
Maximum bit rate : 3 916 Kbps
Width : 480 pixels
Height : 208 pixels
Display aspect ratio : 2.35:1
Frame rate mode : Constant
Frame rate : 23.976 fps
Color space : YUV
Chroma subsampling : 4:2:0
Bit depth : 8 bits
Scan type : Progressive
Compression mode : Lossy
Bits/(Pixel*Frame) : 0.209
Stream size : 348 MiB (65%)
Writing library : XviD 73
Language : English
Tagged date : UTC 2014-11-12 17:31:40

Audio #1
ID : 2
Format : AAC
Format/Info : Advanced Audio Codec
Format profile : LC
Codec ID : 40
Duration : 1h 37mn
Bit rate mode : Variable
Bit rate : 128 Kbps
Maximum bit rate : 135 Kbps
Channel(s) : 2 channels
Channel positions : Front: L R
Sampling rate : 48.0 KHz
Compression mode : Lossy
Stream size : 89.3 MiB (17%)
Title : MVO R5
Language : Russian
Encoded date : UTC 2014-11-12 17:31:16
Tagged date : UTC 2014-11-12 17:31:40

Audio #2
ID : 3
Format : AAC
Format/Info : Advanced Audio Codec
Format profile : LC
Codec ID : 40
Duration : 1h 37mn
Bit rate mode : Variable
Bit rate : 128 Kbps
Maximum bit rate : 135 Kbps
Channel(s) : 2 channels
Channel positions : Front: L R
Sampling rate : 48.0 KHz
Compression mode : Lossy
Stream size : 89.2 MiB (17%)
Title : VO Rider
Language : Russian
Encoded date : UTC 2014-11-12 17:31:21
Tagged date : UTC 2014-11-12 17:31:40


Кровавый округ: 1983 / Красный райдинг: 1983
Red Riding: 1983

Год выпуска: 2009
Страна: Великобритания (Channel Four Film, Lip Sync Productions, Revolution Films, Screen Yorkshire)
Жанр: Драма, криминал
Продолжительность: 01:44:41
Перевод 1: Профессиональный (многоголосый, закадровый) [R5] ([url=...3241200]отсюда[/url])
Перевод 2: Одноголосый (закадровый) [Александр Райдер (Rider)]
Оригинальная дорожка: Нет
Cубтитры: Нет
Режиссер: Ананд Такер / Anand Tucker
В ролях: Дэвид Моррисси, Лиза Ховард, Крис Уокер, Шон Дули, Джим Картер, Уоррен Кларк, Шон Бин, Шон Харрис, Стивен Робертсон, Тони Муни
Описание: Таинственный маньяк, похищавший и убивавший детей в Йоркшире, вновь дает о себе знать, в то время как коррумпированные полицейские, убежденные в своей безнаказанности, арестовывают, пытают и убивают ни в чем не повинных людей.

Качество: HDRip (Рип с [url=...3241200]BDRip 1080p[/url])
Формат: MP4
Видео: XviD, 480х208 (2.35:1), 499 kbps, 23.976 fps
Аудио 1: Русский, AAC, 2 ch, 48 kHz, 128 kbps [MVO, R5]
Аудио 2: Русский, AAC, 2 ch, 48 kHz, 128 kbps [VO, Rider]
General
Complete name : Red.Riding.In.The.Year.Of.Our.Lord.Trilogy.2009.HDRip.XviD.480x(semen_52-TNC)\[VIDEO] Red.Riding.In.The.Year.Of.Our.Lord.1983.2009.HDRip.XviD.480x(semen_52-TNC).mp4
Format : MPEG-4
Format profile : Base Media
Codec ID : isom
File size : 572 MiB
Duration : 1h 44mn
Overall bit rate mode : Variable
Overall bit rate : 764 Kbps
Movie name : [VIDEO] Red Riding In The Year Of Our Lord 1983 HDRip XviD 480x(semen_52-TNC)
ContentType : Short Film
Encoded date : UTC 2014-11-12 17:34:12
Tagged date : UTC 2014-11-12 17:36:25
Writing application : MkvToMp4 version: 0.224 (x64)
Comment : Rip by semen_52-TNC

Video
ID : 1
Format : MPEG-4 Visual
Format profile : Advanced [email protected]
Format settings, BVOP : No
Format settings, QPel : No
Format settings, GMC : No warppoints
Format settings, Matrix : Custom
Codec ID : 20
Duration : 1h 44mn
Bit rate mode : Variable
Bit rate : 499 Kbps
Maximum bit rate : 3 333 Kbps
Width : 480 pixels
Height : 208 pixels
Display aspect ratio : 2.35:1
Frame rate mode : Constant
Frame rate : 23.976 fps
Color space : YUV
Chroma subsampling : 4:2:0
Bit depth : 8 bits
Scan type : Progressive
Compression mode : Lossy
Bits/(Pixel*Frame) : 0.209
Stream size : 374 MiB (65%)
Writing library : XviD 73
Language : English
Tagged date : UTC 2014-11-12 17:35:00

Audio #1
ID : 2
Format : AAC
Format/Info : Advanced Audio Codec
Format profile : LC
Codec ID : 40
Duration : 1h 44mn
Bit rate mode : Variable
Bit rate : 128 Kbps
Maximum bit rate : 133 Kbps
Channel(s) : 2 channels
Channel positions : Front: L R
Sampling rate : 48.0 KHz
Compression mode : Lossy
Stream size : 95.8 MiB (17%)
Title : MVO R5
Language : Russian
Encoded date : UTC 2014-11-12 17:34:16
Tagged date : UTC 2014-11-12 17:35:00

Audio #2
ID : 3
Format : AAC
Format/Info : Advanced Audio Codec
Format profile : LC
Codec ID : 40
Duration : 1h 44mn
Bit rate mode : Variable
Bit rate : 128 Kbps
Maximum bit rate : 135 Kbps
Channel(s) : 2 channels
Channel positions : Front: L R
Sampling rate : 48.0 KHz
Compression mode : Lossy
Stream size : 95.8 MiB (17%)
Title : VO Rider
Language : Russian
Encoded date : UTC 2014-11-12 17:34:44
Tagged date : UTC 2014-11-12 17:35:00


Трекер:  [ 02-Дек-2014 21:00 ]

  

Скачать .torrent

Размер .torrent файла 17 KB


Размер: 1.65 GB
Хэш (hash) релиза: 205845361b680f88c2ec9d3c909db1c71186da09

Еще никто не оставлял запись к записи скачать торрент [VIDEO] Кровавый округ: Трилогия Красный райдинг: Трилогия . Будь первым!

!Обратная связь