Childish Gambino | 29.05.1800:57 Uhr Ebook-Package 29.05.2018*14 aktuelle Magazine* 0 / 05.573 Hits VID P2P DDL 0 Kommentare | Baywatch 2017 Hindi Dubbed BluRay ORG 170Mb hevc

Скачать через торрент [ANIME] Призрак в доспехах Ghost in the Shell бесплатно русская версия torrent активатор

Статистика раздачи
Размер:  899 MB   |    Зарегистрирован:  3 года 7 месяцев   |    .torrent скачан:  82 раза   |   
Раздают:  1  
   
загрузка...
 
Автор Сообщение

Galfimbul

avatar Galfimbul


Ghost in the ShellПризрак в доспехах


Режиссер: Осии Мамору | Mamoru Oshii
Год выпуска: 1995
Страна: Япония
Жанр: приключения, фантастика
Продолжительность: 01:22:40
Перевод: Полное дублирование по заказу ОРТ




В недалеком 2029 году сети и компьютеры развились до того, что появилась возможность создавать высокотехнологичных киборгов с полной интеграцией в Сеть. Главная героиня Кусанаги Мотоко - киборг, с человеческим разумом внутри кибернетического тела, майор Девятого отдела, созданного для спецопераций правительства. В Сети объявляется некий Кукловод, манипулирующий людьми через ту же Сеть, заставляя их действовать в его интересах. Его поимкой и занимается Девятый отдел. Но не все так просто, Кукловод оказывается разумным вирусом, разработанным "коллегами" из Шестого отдела для промышленного шпионажа и т.д., в деле оказывается замешана политика...




Качество: BDRip ([i][url=...3894224]BDRemux[/url])
Формат: MP4
Видео: AVC High L4.1, 960х520 (1.85:1), 1 402 Kbps, 23.976 fps
Аудио: AAC, 2 ch, 48 kHz, 117 Kbps[/i]

x264 [info]: frame I:745   Avg QP:17.27  size: 77910
x264 [info]: frame P:19685 Avg QP:20.51  size: 17951
x264 [info]: frame B:98489 Avg QP:22.71  size:  4646
x264 [info]: consecutive B-frames:  1.4%  1.4%  3.8% 10.6% 10.6% 26.2%  9.7%  6.3%  4.7%  3.3%  3.1%  6.1%  3.4%  3.4%  3.8%  2.2%
x264 [info]: mb I  I16..4:  9.5% 68.9% 21.6%
x264 [info]: mb P  I16..4:  0.7%  4.2%  1.3%  P16..4: 35.8% 34.6% 10.6%  0.0%  0.0%    skip:12.9%
x264 [info]: mb B  I16..4:  0.1%  0.5%  0.1%  B16..8: 40.0% 13.7%  1.5%  direct: 2.7%  skip:41.6%  L0:55.9% L1:40.7% BI: 3.4%
x264 [info]: 8x8 transform intra:70.1% inter:69.0%
x264 [info]: coded y,uvDC,uvAC intra: 84.5% 80.9% 54.1% inter: 15.5% 19.0% 1.4%
x264 [info]: i16 v,h,dc,p: 41% 28%  7% 25%
x264 [info]: i8 v,h,dc,ddl,ddr,vr,hd,vl,hu:  9%  8%  4% 12% 16% 13% 14% 11% 12%
x264 [info]: i4 v,h,dc,ddl,ddr,vr,hd,vl,hu: 12% 10%  4% 10% 14% 13% 13% 11% 13%
x264 [info]: i8c dc,h,v,p: 37% 26% 19% 17%
x264 [info]: Weighted P-Frames: Y:15.1% UV:5.9%
x264 [info]: ref P L0: 34.7%  8.4% 17.1%  7.9%  7.4%  5.5%  5.5%  2.9%  2.9%  2.3%  2.5%  2.2%  0.5%  0.0%
x264 [info]: ref B L0: 43.9% 17.0% 11.7%  6.7%  5.3%  4.9%  4.1%  2.6%  2.2%  1.3%  0.4%
x264 [info]: ref B L1: 84.5% 15.5%
x264 [info]: kb/s:1401.61
encoded 118919 frames, 11.86 fps, 1401.61 kb/s

General
Complete name                            : Z:\Downloads\Ghost in the Shell.mp4
Format                                   : MPEG-4
Format profile                           : Base Media
Codec ID                                 : isom
File size                                : 899 MiB
Duration                                 : 1h 22mn
Overall bit rate mode                    : Variable
Overall bit rate                         : 1 520 Kbps
Movie name                               : Ghost in the Shell
ContentType                              : Short Film
Encoded date                             : UTC 2014-11-12 08:00:00
Tagged date                              : UTC 2014-11-12 08:00:27
Writing application                      : MkvToMp4 version: 0.224 (x64)
Cover                                    : Yes
Comment                                  : |TORCHDK|

Video
ID                                       : 1
Format                                   : AVC
Format/Info                              : Advanced Video Codec
Format profile                           : [email protected]
Format settings, CABAC                   : Yes
Format settings, ReFrames                : 12 frames
Codec ID                                 : avc1
Codec ID/Info                            : Advanced Video Coding
Duration                                 : 1h 22mn
Bit rate                                 : 1 402 Kbps
Maximum bit rate                         : 8 652 Kbps
Width                                    : 960 pixels
Height                                   : 520 pixels
Display aspect ratio                     : 1.85:1
Frame rate mode                          : Constant
Frame rate                               : 23.976 fps
Color space                              : YUV
Chroma subsampling                       : 4:2:0
Bit depth                                : 8 bits
Scan type                                : Progressive
Bits/(Pixel*Frame)                       : 0.117
Stream size                              : 829 MiB (92%)
Writing library                          : x264 core 130 r2273 b3065e6
Encoding settings                        : cabac=1 / ref=12 / deblock=1:1:1 / analyse=0x3:0x113 / me=umh / subme=11 / psy=1 / psy_rd=1.00:0.00 / mixed_ref=1 / me_range=48 / chroma_me=1 / trellis=2 / 8x8dct=1 / cqm=0 / deadzone=21,11 / fast_pskip=1 / chroma_qp_offset=-2 / threads=12 / lookahead_threads=3 / sliced_threads=0 / nr=0 / decimate=1 / interlaced=0 / bluray_compat=0 / constrained_intra=0 / bframes=15 / b_pyramid=2 / b_adapt=2 / b_bias=0 / direct=1 / weightb=1 / open_gop=0 / weightp=2 / keyint=250 / keyint_min=23 / scenecut=40 / intra_refresh=0 / rc_lookahead=40 / rc=crf / mbtree=1 / crf=19.7 / qcomp=0.60 / qpmin=0 / qpmax=69 / qpstep=4 / ip_ratio=1.40 / aq=1:1.00
Language                                 : English
Encoded date                             : UTC 2014-11-12 08:00:00
Tagged date                              : UTC 2014-11-12 08:00:11

Audio
ID                                       : 2
Format                                   : AAC
Format/Info                              : Advanced Audio Codec
Format profile                           : LC
Codec ID                                 : 40
Duration                                 : 1h 18mn
Bit rate mode                            : Variable
Bit rate                                 : 117 Kbps
Maximum bit rate                         : 158 Kbps
Channel(s)                               : 2 channels
Channel positions                        : Front: L R
Sampling rate                            : 48.0 KHz
Compression mode                         : Lossy
Stream size                              : 65.6 MiB (7%)
Language                                 : Russian
Encoded date                             : UTC 2014-11-12 08:00:09
Tagged date                              : UTC 2014-11-12 08:00:11


Трекер:  [ 02-Дек-2014 21:00 ]

  

Скачать .torrent

Размер .torrent файла 18 KB


Размер: 899 MB
Хэш (hash) релиза: 0ba6fa95a74acbd34143bd5931818497f36785bf

Еще никто не оставлял запись к записи скачать торрент [ANIME] Призрак в доспехах Ghost in the Shell . Будь первым!

!Обратная связь