June 2017 (112) | Bloons td5 | Aon Browser, Adblock Mini 2.0.4 tr.abak.simsekTarayici

Скачать через торрент [VIDEO] Тихий Дон Серии: 1-3 из 3 бесплатно русская версия torrent активатор

Статистика раздачи
Размер:  1.88 GB   |    Зарегистрирован:  3 года 7 месяцев   |    .torrent скачан:  110 раз   |   
Раздают:  1  
   
загрузка...
 
Автор Сообщение

Galfimbul

avatar Galfimbul


Тихий Дон



Год выпуска: 1957-1958
Страна: СССР, киностудия им. М. Горького
Жанр: экранизация, драма
Продолжительность: 01:43:56; 01:56:10; 01:56:27
Перевод: Не требуется
Cубтитры: нет
Режиссер: Сергей Герасимов
В ролях: Пётр Глебов, Элина Быстрицкая, Зинаида Кириенко, Даниил Ильченко, Людмила Хитяева, Николай Смирнов, Александр Жуков, Наталья Архангельская, Александра Денисова, Алексей Благовестов, Борис Новиков, Игорь Дмитриев, Михаил Глузский, Вильям Шатуновский, Виктор Бубнов, Вячеслав Бутенко, Пётр Чернов, Анастасия Филиппова, Александр Граве, Дмитрий Капка, Александр Карпов, Геннадий Карякин, Валентина Хмара, Пётр Любешкин, Елена Максимова, Ольга Маркина, Владимир Муравьев, Александр Шатов, Любовь Соколова, Семён Свашенко, Александр Титов, Николай Тямин, Михаил Васильев, Инна Выходцева, Сергей Юртайкин, Вадим Захарченко, Василий Шукшин, Иван Рыжов
Описание: Бессмертный роман Михаила Шолохова, отмеченный Нобелевской премией и вошедший в число наиболее ярких произведений мировой литературы, рассказывает о трагической ситуации, сложившейся в России в начале ХХ века, о сломанных Первой Мировой войной и революцией судьбах людей, о крушении устоев и идеалов донского казачества, о личной трагедии главного героя — Григория Мелехова.



Качество: DVDRip
Формат: MP4
Видео: AVC at 679 Kbps, 464 x 360 (1.297) at 25.000 fps
Аудио: AAC at 128 Kbps, 2 channels, 48.0 KHz
GeneralComplete name : G:\Тихий Дон (1957) 640х\Тихий Дон 01 серия.mp4Format : MPEG-4Format profile : Base MediaCodec ID : isomFile size : 606 MiBDuration : 1h 43mnOverall bit rate mode : VariableOverall bit rate : 815 KbpsMovie name : Tihij Don 01 (1957) [by Alien.09]Encoded date : UTC 2014-11-13 09:13:48Tagged date : UTC 2014-11-13 09:14:12Writing application : MkvToMp4 version: 0.224 (x64)hdvd : 0stik : 9

VideoID : 1Format : AVCFormat/Info : Advanced Video CodecFormat profile : [email protected] settings, CABAC : YesFormat settings, ReFrames : 3 framesCodec ID : avc1Codec ID/Info : Advanced Video CodingDuration : 1h 43mnBit rate : 679 KbpsMaximum bit rate : 4 158 KbpsWidth : 464 pixelsHeight : 360 pixelsDisplay aspect ratio : 1.297Frame rate mode : ConstantFrame rate : 25.000 fpsColor space : YUVChroma subsampling : 4:2:0Bit depth : 8 bitsScan type : ProgressiveBits/(Pixel*Frame) : 0.163Stream size : 505 MiB (83%)Writing library : x264 core 116 r2019M 9cc407dEncoding settings : cabac=1 / ref=3 / deblock=1:0:0 / analyse=0x1:0x131 / me=hex / subme=7 / psy=1 / psy_rd=1.00:0.20 / mixed_ref=1 / me_range=16 / chroma_me=1 / trellis=1 / 8x8dct=0 / cqm=0 / deadzone=21,11 / fast_pskip=1 / chroma_qp_offset=-3 / threads=12 / sliced_threads=0 / nr=0 / decimate=1 / interlaced=0 / bluray_compat=0 / constrained_intra=0 / bframes=3 / b_pyramid=0 / b_adapt=2 / b_bias=0 / direct=3 / weightb=1 / open_gop=0 / weightp=0 / keyint=250 / keyint_min=25 / scenecut=40 / intra_refresh=0 / rc_lookahead=40 / rc=2pass / mbtree=1 / bitrate=679 / ratetol=1.0 / qcomp=0.60 / qpmin=10 / qpmax=51 / qpstep=4 / cplxblur=20.0 / qblur=0.5 / vbv_maxrate=5000 / vbv_bufsize=1835 / nal_hrd=none / ip_ratio=1.40 / aq=1:1.00Language : RussianEncoded date : UTC 2014-11-13 09:13:48Tagged date : UTC 2014-11-13 09:13:58

AudioID : 2Format : AACFormat/Info : Advanced Audio CodecFormat profile : LCCodec ID : 40Duration : 1h 43mnBit rate mode : VariableBit rate : 128 KbpsMaximum bit rate : 212 KbpsChannel(s) : 2 channelsChannel positions : Front: L RSampling rate : 48.0 KHzCompression mode : LossyStream size : 95.1 MiB (16%)Language : RussianEncoded date : UTC 2014-11-13 09:13:55Tagged date : UTC 2014-11-13 09:13:58


Трекер:  [ 02-Дек-2014 21:00 ]

  

Скачать .torrent

Размер .torrent файла 19 KB


Размер: 1.88 GB
Хэш (hash) релиза: 226b53d75a5a0425e4f2d0f42d7025565a3192db

Еще никто не оставлял запись к записи скачать торрент [VIDEO] Тихий Дон Серии: 1-3 из 3 . Будь первым!

!Обратная связь