Télécharger Part 18 | Impulse S01E01 XviD-AFG 1 hour | Double Dare: Season ...

Скачать через торрент [VIDEO] Ко мне, Мухтар! бесплатно русская версия torrent активатор

Статистика раздачи
Размер:  657 MB   |    Зарегистрирован:  3 года 7 месяцев   |    .torrent скачан:  31 раз   |   
Раздают:  1  
   
загрузка...
 
Автор Сообщение

Galfimbul

avatar Galfimbul


Ко мне, Мухтар!

Год выпуска: 1964
Страна: СCCP
Жанр: драма
Продолжительность: 01:17:50
Перевод: не требуется
Cубтитры: нет
Режиссер: Семен Туманов
В ролях: Юрий Никулин, Владимир Емельянов, Леонид Кмит, Юрий Белов, Алла Ларионова, Федор Никитин, Николай Крючков, Сергей Голованов, Владимир Гуляев, Лев Дуров и другие .
Описание: Фильм о взаимной преданности лейтенанта милиции и овчарки по кличке Мухтар. Самоотверженный пёс, готовый жизнью заплатить за любовь, выручает хозяина в опаснейших ситуациях, которые чуть не каждый день готовит им нелёгкая служба.
Доп. информация:

Качество: DVDRip / [url=...2746763]DVD5[/url] "Крупный План", полная реставрация изображения и звука
Формат: MP4
Видео кодек: H.264
Аудио кодек: AAC
Видео: 640x272 AR:2.35 1044 kbps, 25 fps
Аудио: 2 ch, 48 kHz, 128 kbps
...last pass...

x264.exe: --pass 2 --bitrate 1044 --preset medium --profile high --level 4.1 --ref 8 --deblock -2:-2 --merange 24 --no-chroma-me --direct auto --b-adapt 2 --trellis 2 --no-fast-pskip --no-dct-decimate --psy-rd 1.00:0.10 --partitions all --subme 9 --me umh --colorprim bt470bg --transfer bt470bg --colormatrix bt470bg --sar 1:1 --stats "C:\Torrents_T04.log" --output "C:\Torrents_T04.mp4" "C:\Temp\0084.avs"

avs [info]: 640x272p 1:1 @ 25/1 fps (cfr)
x264 [info]: using SAR=1/1
x264 [info]: using cpu capabilities: MMX2 SSE2Fast SSSE3 SSE4.2 LZCNT
x264 [info]: profile High, level 4.1

x264 [info]: frame I:608 Avg QP:18.39 size: 30590
x264 [info]: frame P:32607 Avg QP:21.29 size: 11029
x264 [info]: frame B:83536 Avg QP:24.27 size: 2769
x264 [info]: consecutive B-frames: 1.4% 3.8% 17.7% 77.1%
x264 [info]: mb I I16..4: 10.3% 63.6% 26.1%
x264 [info]: mb P I16..4: 1.7% 5.2% 1.6% P16..4: 43.1% 20.9% 17.8% 1.4% 0.5% skip: 7.8%
x264 [info]: mb B I16..4: 0.0% 0.4% 0.2% B16..8: 40.9% 9.9% 3.2% direct: 6.1% skip:39.2% L0:38.5% L1:40.8% BI:20.7%
x264 [info]: 8x8 transform intra:61.9% inter:58.5%
x264 [info]: direct mvs spatial:96.7% temporal:3.3%
x264 [info]: coded y,uvDC,uvAC intra: 81.0% 0.0% 0.0% inter: 31.4% 0.0% 0.0%
x264 [info]: i16 v,h,dc,p: 70% 14% 10% 6%
x264 [info]: i8 v,h,dc,ddl,ddr,vr,hd,vl,hu: 10% 11% 8% 9% 13% 11% 13% 10% 14%
x264 [info]: i4 v,h,dc,ddl,ddr,vr,hd,vl,hu: 10% 9% 6% 9% 14% 12% 13% 11% 15%
x264 [info]: i8c dc,h,v,p: 100% 0% 0% 0%
x264 [info]: Weighted P-Frames: Y:36.1% UV:0.0%
x264 [info]: ref P L0: 41.4% 17.6% 15.8% 7.4% 5.4% 4.4% 3.9% 2.6% 1.3% 0.2%
x264 [info]: ref B L0: 76.7% 11.6% 4.9% 2.7% 1.9% 1.4% 0.8%
x264 [info]: ref B L1: 94.6% 5.4%
x264 [info]: kb/s:1044.11
encoded 116751 frames, 28.07 fps, 1044.11 kb/s
GeneralComplete name : D:\Torrents\Ko mne Myhtar.1964.DVDRip.x264.640x.rip by Frost O.S.mp4Format : MPEG-4Format profile : Base MediaCodec ID : isomFile size : 657 MiBDuration : 1h 17mnOverall bit rate mode : VariableOverall bit rate : 1 181 KbpsMovie name : Ko mne Myhtar 1964 DVDRip x264 640x rip by Frost O SContentType : Short FilmEncoded date : UTC 2014-11-13 16:03:17Tagged date : UTC 2014-11-13 16:03:56Writing application : MkvToMp4 version: 0.224 (x64)

VideoID : 1Format : AVCFormat/Info : Advanced Video CodecFormat profile : [email protected] settings, CABAC : YesFormat settings, ReFrames : 8 framesCodec ID : avc1Codec ID/Info : Advanced Video CodingDuration : 1h 17mnBit rate : 1 044 KbpsMaximum bit rate : 6 204 KbpsWidth : 640 pixelsHeight : 272 pixelsDisplay aspect ratio : 2.35:1Frame rate mode : ConstantFrame rate : 25.000 fpsColor space : YUVChroma subsampling : 4:2:0Bit depth : 8 bitsScan type : ProgressiveBits/(Pixel*Frame) : 0.240Stream size : 581 MiB (88%)Writing library : x264 core 130 r2273 b3065e6Encoding settings : cabac=1 / ref=8 / deblock=1:-2:-2 / analyse=0x3:0x133 / me=umh / subme=9 / psy=1 / psy_rd=1.00:0.10 / mixed_ref=1 / me_range=24 / chroma_me=0 / trellis=2 / 8x8dct=1 / cqm=0 / deadzone=21,11 / fast_pskip=0 / chroma_qp_offset=-3 / threads=3 / lookahead_threads=1 / sliced_threads=0 / nr=0 / decimate=0 / interlaced=0 / bluray_compat=0 / constrained_intra=0 / bframes=3 / b_pyramid=2 / b_adapt=2 / b_bias=0 / direct=3 / weightb=1 / open_gop=0 / weightp=2 / keyint=250 / keyint_min=25 / scenecut=40 / intra_refresh=0 / rc_lookahead=40 / rc=2pass / mbtree=1 / bitrate=1044 / ratetol=1.0 / qcomp=0.60 / qpmin=0 / qpmax=69 / qpstep=4 / cplxblur=20.0 / qblur=0.5 / ip_ratio=1.40 / aq=1:1.00Language : EnglishEncoded date : UTC 2014-11-13 16:03:17Tagged date : UTC 2014-11-13 16:03:25Color primaries : BT.601 PALTransfer characteristics : BT.470 System B, BT.470 System GMatrix coefficients : BT.601

AudioID : 2Format : AACFormat/Info : Advanced Audio CodecFormat profile : LCCodec ID : 40Duration : 1h 17mnBit rate mode : VariableBit rate : 128 KbpsMaximum bit rate : 135 KbpsChannel(s) : 2 channelsChannel positions : Front: L RSampling rate : 48.0 KHzCompression mode : LossyStream size : 71.3 MiB (11%)Language : RussianEncoded date : UTC 2014-11-13 16:03:24Tagged date : UTC 2014-11-13 16:03:25


Трекер:  [ 02-Дек-2014 21:00 ]

  

Скачать .torrent

Размер .torrent файла 13 KB


Размер: 657 MB
Хэш (hash) релиза: 66e0199683f336b6d59a48d3865dc5c96572b9b4

Еще никто не оставлял запись к записи скачать торрент [VIDEO] Ко мне, Мухтар! . Будь первым!

!Обратная связь