Episode 5 | Beelzebub: vol.22 chapter 240.5 : Side Story 5: Love Blooms in The Season of Partings | S.2 Ep.10 8.2 Westworld (2016)

Скачать через торрент [DOC] Обыкновенный фашизм бесплатно русская версия torrent активатор

Статистика раздачи
Размер:  699 MB   |    Зарегистрирован:  3 года 7 месяцев   |    .torrent скачан:  73 раза   |   
Раздают:  1  
   
загрузка...
 
Автор Сообщение

Galfimbul

avatar Galfimbul


Обыкновенный фашизм



Год выпуска: 1965
Страна: СССР, киностудия Мосфильм
Жанр: Документальный
Продолжительность: 02:10:07
Перевод: Не требуется
Cубтитры: нет
Режиссер: Михаил Ромм
Комментатор: Михаил Ромм
Описание: «Показывая вам нашу картину, мы, разумеется, не рассчитывали осветить все формы такого явления как фашизм. Это невозможно в пределах одной картины. Да это невозможно хотя бы потому, что многое, очень важное, не оставило никаких следов на пленке. Не было снято. Из огромного количества материала мы отобрали то, что показалось нам самым поразительным, что дает нам возможность вместе с вами поразмышлять...»



Качество: DVDRip
Формат: MP4
Видео: AVC at 679 Kbps, 480 x 360 (1.333) at 25.000 fps
Аудио: AAC at 64.0 Kbps, 1 channel, 48.0 KHz
GeneralComplete name : G:\Обыкновенный фашизм (1965) 640х.mp4Format : MPEG-4Format profile : Base MediaCodec ID : isomFile size : 699 MiBDuration : 2h 10mnOverall bit rate mode : VariableOverall bit rate : 751 KbpsMovie name : [by Alien.09]Encoded date : UTC 2014-11-14 14:51:13Tagged date : UTC 2014-11-14 14:51:50Writing application : MkvToMp4 version: 0.224 (x64)hdvd : 0stik : 9

VideoID : 1Format : AVCFormat/Info : Advanced Video CodecFormat profile : [email protected] settings, CABAC : YesFormat settings, ReFrames : 3 framesCodec ID : avc1Codec ID/Info : Advanced Video CodingDuration : 2h 10mnBit rate : 679 KbpsMaximum bit rate : 3 768 KbpsWidth : 480 pixelsHeight : 360 pixelsDisplay aspect ratio : 4:3Frame rate mode : ConstantFrame rate : 25.000 fpsColor space : YUVChroma subsampling : 4:2:0Bit depth : 8 bitsScan type : ProgressiveBits/(Pixel*Frame) : 0.157Stream size : 632 MiB (90%)Writing library : x264 core 116 r2019M 9cc407dEncoding settings : cabac=1 / ref=3 / deblock=1:0:0 / analyse=0x1:0x131 / me=hex / subme=7 / psy=1 / psy_rd=1.00:0.20 / mixed_ref=1 / me_range=16 / chroma_me=1 / trellis=1 / 8x8dct=0 / cqm=0 / deadzone=21,11 / fast_pskip=1 / chroma_qp_offset=-3 / threads=12 / sliced_threads=0 / nr=0 / decimate=1 / interlaced=0 / bluray_compat=0 / constrained_intra=0 / bframes=3 / b_pyramid=0 / b_adapt=2 / b_bias=0 / direct=3 / weightb=1 / open_gop=0 / weightp=0 / keyint=250 / keyint_min=25 / scenecut=40 / intra_refresh=0 / rc_lookahead=40 / rc=2pass / mbtree=1 / bitrate=679 / ratetol=1.0 / qcomp=0.60 / qpmin=10 / qpmax=51 / qpstep=4 / cplxblur=20.0 / qblur=0.5 / vbv_maxrate=5000 / vbv_bufsize=1835 / nal_hrd=none / ip_ratio=1.40 / aq=1:1.00Language : RussianEncoded date : UTC 2014-11-14 14:51:13Tagged date : UTC 2014-11-14 14:51:23

AudioID : 2Format : AACFormat/Info : Advanced Audio CodecFormat profile : LCCodec ID : 40Duration : 2h 10mnBit rate mode : VariableBit rate : 64.0 KbpsMaximum bit rate : 98.5 KbpsChannel(s) : 1 channelChannel positions : Front: CSampling rate : 48.0 KHzCompression mode : LossyStream size : 59.5 MiB (9%)Language : RussianEncoded date : UTC 2014-11-14 14:51:20Tagged date : UTC 2014-11-14 14:51:23


Трекер:  [ 02-Дек-2014 21:00 ]

  

Скачать .torrent

Размер .torrent файла 14 KB


Размер: 699 MB
Хэш (hash) релиза: 449f6ae425fb0eb514a13100c8f91805f6858df6

Еще никто не оставлял запись к записи скачать торрент [DOC] Обыкновенный фашизм . Будь первым!

!Обратная связь