Chapter 801: Even Though You Ran Away The Whole Time | Auto Plus France – 06 juillet 2018 | Craig Of The ...

Скачать через торрент [VIDEO] Трансформеры: Эпоха истребления Transformers: Age Of Extinction бесплатно русская версия torrent активатор

Статистика раздачи
Размер:  2.83 GB   |    Зарегистрирован:  3 года 7 месяцев   |    .torrent скачан:  45 раз   |   
Раздают:  1  
   
загрузка...
 
Автор Сообщение

Galfimbul

avatar Galfimbul


Трансформеры: Эпоха истребления
Transformers: Age Of Extinction

Год выпуска: 2014
Страна: США, Китай (Paramount Pictures, Hasbro, Di Bonaventura Pictures)
Жанр: Фантастика, боевик, приключения
Продолжительность: 02:45:07
Перевод: Профессиональный (полное дублирование) BD CEE
Оригинальная дорожка: Английский
Cубтитры: Русские, отключаемые, форсированные и полные
Режиссер: Майкл Бэй / Michael Bay
В ролях: Марк Уолберг, Никола Пельтц, Стэнли Туччи, Келси Грэммер, София Майлс, Эбигейл Клейн, Джек Рейнор, Титус Уэлливер, Питер Каллен, ТиДжей Миллер
Описание: Автоботы и десептиконы покинули планету, оставив человечество собирать ее по кусочкам. Между тем группа могущественных бизнесменов и гениальных ученых пытается извлечь уроки из ошибок прошлого и улучшить технологии до такой степени, чтобы выйти за пределы контролируемого ранее. В это время другая группа — древних мощных трансформеров — берет Землю под прицел.

Качество: BDRip (Рип с BDRemux 1080p)
Формат: MP4
Видео: AVC, 960x400 (2.40:1), 2186 kbps, 23.976 fps
Аудио 1: Русский, AAC, 2 ch, 48 kHz, 128 kbps [Dub, BD CEE]
Аудио 2: Английский, AAC, 2 ch, 48 kHz, 128 kbps [Original]
Во время работы над фильмом Майкл Бэй использовал платформу Shotover K1 для воздушных съемок в IMAX и 3D.
В сериале «Трансформеры» (1984-1987) Хаунд превращался в военный джип Mitsubishi J59, но в этом фильме он трансформируется в войсковое транспортное средство средней грузоподъёмности — грузовик Oshkosh Defense.
В оригинальном сериале Дрифт трансформировался в спортивный автомобиль Nissan Silvia 615, но в этом фильме он превращается в Bugatti Veyron Grand Sport Vitesse.
Изабель Корниш, Маргарет Куэлли и Габриэлла Уайлд прослушивались на роль дочери, прежде чем она досталась Николе Пельтц.
Лэндон Либуарон, Люк Граймс, Хантер Пэрриш и Брентон Туэйтес прослушивались на роль парня дочери, прежде чем эта роль отошла Джеку Рейнору.
Сюжет фильма рассказывает о событиях спустя пять лет после финальной битвы в Чикаго из фильма «Трансформеры 3: Тёмная сторона Луны» (2011).
Paramount Pictures заключила договор, объединившись с китайскими кинокомпаниями China Movie Channel и Jiaflix Enterprises, для того чтобы провести съемки в Китае. Это уже второе сотрудничество Paramount Pictures с китайскими кинокомпаниями, в первый раз это был фильм «Железный человек 3» (2013).
Это первый фильм о трансформерах полностью снятый в 3D-формате.
Роль Флинна Винсента была предложена Дуэйну Джонсону, но он отказался из-за несогласованности расписаний съемок с фильмом «Геракл» (2014).
Грузовик, в который трансформируется Оптимус Прайм в этом фильме, — это выполненный на заказ Western Star 4900 SB. Внешне он сделан похожим на его модификацию из «G2» — автоцистерну Western Star 4964EX 1995 года, и на его модификацию из сериала «Трансформеры: Прайм» (2010), где он принимал вид военного грузовика.
В этом фильме Бамблби трансформируется в Chevrolet Camaro SS 1967 года.
В сериале «Трансформеры» (1984-1987) Кроссхэйрз превращался в Lamborghini Countach, но в этом фильме он трансформируется в Chevrolet Corvette C7 Stingray.
Дети Марка Уолберга — Элла Рэй (Ella Rae), Майкл Роберт (Michael Robert), Брендан Джозеф (Brendan Joseph) и Грэйс Маргарет (Grace Margaret) — являются ярыми поклонниками трансформеров, и у них получилось выпросить себе роли в этом фильме.
В сериале «Трансформеры» (1984-1987) Локдаун превращался в полицейский автомобиль Nissan 280z, но в этом фильме он трансформируется в Lamborghini Aventador LP700-4.
Роланд Эммерих, Джо Джонстон, Джон Тёртелтауб, Стивен Соммерс, Луи Летерье и Дэвид Йэтс рассматривались на место Майкла Бэя до того, как он решил, что будет заниматься этим фильмом.
Динобот, который превращается в птеранодона, изначально назывался Свуп, но позже имя было изменено на Стрейф. Последний первоначально принадлежал к отряду техноботов.
ТиДжей Миллер дал прозвище своему персонажу Лукасу — «Lucas the Doofus» (Лукас — тупица).
Дизайн роботов был сделан по образу трансформеров, взятому из комиксов IDW и из сериала «Трансформеры: Прайм» (2010-2013).
Съемки одной из экшн сцен проходили в Железнодорожном музее штата Иллинойс. Марк Уолберг после завершения съемок сделал пожертвование музею в размере $ 40.000. А Майкл Бэй купил у музея кран 1930-х годов, на котором было тиснение «Bay City». По словам режиссера, он планирует отреставрировать этот кран и поставить его во дворе своего ранчо в штате Монтана.
Режиссер Майкл Бэй использовал передовые цифровые 3D камеры IMAX, обладающие самым высоким разрешением в мире, для съемки экшн сцен.
Перед тем, как Оптимуса с дочерью Егера забирают в плен, Оптимус лежит рядом с машиной, в которой прячется дочь. С разных планов дверь со стороны водителя то закрыта, то открыта.
Когда четверо героев забегают в лифт, герой Уолберга говорит, что лифт перегружен. Однако позже видно, что лифт грузоподъёмностью 680 кг рассчитан на 9 персон.
Когда персонаж Уолберга вызволяет свою дочь с корабля, то они спускаются по тросам к зданию. За ними также по тросам начинают гнаться «роботы-львы». В одном кадре за спиной у дочери есть эти роботы, а в следующем таком же моменте — нет.
По версии создателей фильма человек способен инопланетным мечом блокировать удар многотонного трансформера (момент, когда герой Уолберга сражается с трансформером).
В момент, когда инопланетный корабль начинает притягивать разные машины и другие металлические предметы, главные герои находятся в машине, которая ездит среди этого безумия, но почему-то не притягивается как остальные автомобили.
x264 [info]: frame I:2386 Avg QP:22.34 size: 59886
x264 [info]: frame P:59101 Avg QP:25.29 size: 21659
x264 [info]: frame B:176050 Avg QP:27.41 size: 7295

x264 [total]: encoded 237537 frames, 17.21 fps, 2186.08 kb/s
General
Complete name : [VIDEO] Transformers.Age.Of.Extinction.2014.BDRip.Lic.x264.960x(semen_52-TNC).mp4
Format : MPEG-4
Format profile : Base Media
Codec ID : isom
File size : 2.83 GiB
Duration : 2h 45mn
Overall bit rate mode : Variable
Overall bit rate : 2 454 Kbps
Movie name : [VIDEO] Transformers Age Of Extinction 2014 BDRip Lic x264 960x(semen_52-TNC)
ContentType : Short Film
Encoded date : UTC 2014-11-14 19:34:37
Tagged date : UTC 2014-11-14 19:40:47
Writing application : MkvToMp4 version: 0.224 (x64)
Comment : Rip by semen_52-TNC

Video
ID : 1
Format : AVC
Format/Info : Advanced Video Codec
Format profile : [email protected]
Format settings, CABAC : Yes
Format settings, ReFrames : 8 frames
Codec ID : avc1
Codec ID/Info : Advanced Video Coding
Duration : 2h 45mn
Bit rate : 2 186 Kbps
Maximum bit rate : 10.1 Mbps
Width : 960 pixels
Height : 400 pixels
Display aspect ratio : 2.40:1
Frame rate mode : Constant
Frame rate : 23.976 fps
Color space : YUV
Chroma subsampling : 4:2:0
Bit depth : 8 bits
Scan type : Progressive
Bits/(Pixel*Frame) : 0.237
Stream size : 2.52 GiB (89%)
Writing library : x264 core 130 r2273 b3065e6
Encoding settings : cabac=1 / ref=8 / deblock=1:-1:-1 / analyse=0x3:0x113 / me=umh / subme=9 / psy=1 / psy_rd=1.00:0.00 / mixed_ref=1 / me_range=24 / chroma_me=1 / trellis=2 / 8x8dct=1 / cqm=0 / deadzone=21,11 / fast_pskip=0 / chroma_qp_offset=-2 / threads=12 / lookahead_threads=2 / sliced_threads=0 / nr=0 / decimate=1 / interlaced=0 / bluray_compat=0 / constrained_intra=0 / bframes=5 / b_pyramid=2 / b_adapt=2 / b_bias=0 / direct=3 / weightb=1 / open_gop=0 / weightp=2 / keyint=250 / keyint_min=23 / scenecut=40 / intra_refresh=0 / rc_lookahead=60 / rc=2pass / mbtree=1 / bitrate=2186 / ratetol=1.0 / qcomp=0.60 / qpmin=0 / qpmax=69 / qpstep=4 / cplxblur=20.0 / qblur=0.5 / ip_ratio=1.30 / aq=2:1.00 / zones=226100,237537,q=35
Language : English
Encoded date : UTC 2014-11-14 19:34:37
Tagged date : UTC 2014-11-14 19:36:36
Color primaries : BT.709
Transfer characteristics : BT.709
Matrix coefficients : BT.709

Audio #1
ID : 2
Format : AAC
Format/Info : Advanced Audio Codec
Format profile : LC
Codec ID : 40
Duration : 2h 45mn
Bit rate mode : Variable
Bit rate : 128 Kbps
Maximum bit rate : 135 Kbps
Channel(s) : 2 channels
Channel positions : Front: L R
Sampling rate : 48.0 KHz
Compression mode : Lossy
Stream size : 151 MiB (5%)
Title : Dub BD
Language : Russian
Encoded date : UTC 2014-11-14 19:36:04
Tagged date : UTC 2014-11-14 19:36:36

Audio #2
ID : 3
Format : AAC
Format/Info : Advanced Audio Codec
Format profile : LC
Codec ID : 40
Duration : 2h 45mn
Bit rate mode : Variable
Bit rate : 128 Kbps
Maximum bit rate : 135 Kbps
Channel(s) : 2 channels
Channel positions : Front: L R
Sampling rate : 48.0 KHz
Compression mode : Lossy
Stream size : 151 MiB (5%)
Title : Original
Language : English
Encoded date : UTC 2014-11-14 19:36:28
Tagged date : UTC 2014-11-14 19:36:36

Text #1
ID : 4
Format : Timed Text
Muxing mode : sbtl
Codec ID : tx3g
Duration : 2h 23mn
Bit rate mode : Variable
Bit rate : 1 bps
Stream size : 1.04 KiB (0%)
Title : Forced
Language : Russian
Encoded date : UTC 2014-11-14 19:36:36
Tagged date : UTC 2014-11-14 19:36:36

Text #2
ID : 5
Format : Timed Text
Muxing mode : sbtl
Codec ID : tx3g
Duration : 2h 37mn
Bit rate mode : Variable
Bit rate : 100 bps
Stream size : 115 KiB (0%)
Title : Full
Language : Russian
Encoded date : UTC 2014-11-14 19:36:36
Tagged date : UTC 2014-11-14 19:36:36


Трекер:  [ 02-Дек-2014 21:00 ]

  

Скачать .torrent

Размер .torrent файла 14 KB


Размер: 2.83 GB
Хэш (hash) релиза: 74ae0a3d3af0b345f6b89fe53c9109bccc85a463

Торренты, похожие на [VIDEO] Трансформеры: Эпоха истребления Transformers: Age Of Extinction скачать торрент

Форум Название Автор Размер S L Добавлен
Видео (Фильмы/Клипы) ·· [VIDEO] Трансформеры: Эпоха истребления / Transformers: Age Of Extinction (Майкл Бэй / Michael Bay) [2014, фантастика, боевик, приключения, HDRip] [MP4, 960x] [IMAX Edition] Dub CEE, Original, Sub rus Galfimbul 29318500932.73 GB 0 0 1417543964

21:12

2-Дек-14

Еще никто не оставлял запись к записи скачать торрент [VIDEO] Трансформеры: Эпоха истребления Transformers: Age Of Extinction . Будь первым!

!Обратная связь