Hangar 1: The UFO Files | Usagi Drop | Die einsamen Schützen

Скачать через торрент [VIDEO] Гравитация Gravity бесплатно русская версия torrent активатор

Статистика раздачи
Размер:  1000 MB   |    Зарегистрирован:  3 года 7 месяцев   |    .torrent скачан:  50 раз   |   
Раздают:  1  
   
загрузка...
 
Автор Сообщение

Galfimbul

avatar Galfimbul


GravityГравитация


Год выпуска: 2013
Страна: США, Великобритания
Жанр: фантастика, триллер, драма
Продолжительность: 01:30:59
Перевод: Профессиональный (полное дублирование) BD CEE
Режиссер: Альфонсо Куарон | Alfonso Cuaron

В ролях: Сандра Буллок (Sandra Bullock) | Джордж Клуни (George Clooney) | Эд Харрис (Ed Harris) | Орто Игнатиуссен (Orto Ignatiussen) | Фалдут Шарма (Phaldut Sharma) | Эми Уоррен (Amy Warren) | Башер Саваж (Basher Savage)
Доктор Райан Стоун, блестящий специалист в области медицинского инжиниринга, отправляется в свою первую космическую миссию под командованием ветерана астронавтики Мэтта Ковальски, для которого этот полет — последний перед отставкой. Но во время, казалось бы, рутинной работы за бортом случается катастрофа.
Качество: [i]BDRip
([url=...4687107][i]BDRemux[/url])
Формат: MP4
Видео: AVC High L4.1, 960х400 (2.40:1), 1 395 Kbps, 23.976 fps
Аудио: AAC, 2 ch, 48 kHz, 132 Kbps[/i]

x264 [info]: frame I:617   Avg QP:17.47  size: 43938
x264 [info]: frame P:30198 Avg QP:19.82  size: 15758
x264 [info]: frame B:100057 Avg QP:22.43  size:  4485
x264 [info]: consecutive B-frames:  1.8%  3.2%  7.8% 32.3% 21.0% 23.6%  4.3%  2.6%  1.4%  1.9%
x264 [info]: mb I  I16..4: 11.5% 64.3% 24.2%
x264 [info]: mb P  I16..4:  0.5%  6.6%  1.4%  P16..4: 32.5% 37.9% 12.5%  0.0%  0.0%    skip: 8.7%
x264 [info]: mb B  I16..4:  0.1%  0.8%  0.1%  B16..8: 35.9% 18.3%  2.4%  direct: 3.9%  skip:38.6%  L0:39.8% L1:46.8% BI:13.4%
x264 [info]: 8x8 transform intra:76.2% inter:59.4%
x264 [info]: coded y,uvDC,uvAC intra: 85.4% 76.2% 49.8% inter: 19.5% 13.6% 2.7%
x264 [info]: i16 v,h,dc,p: 34% 12% 19% 35%
x264 [info]: i8 v,h,dc,ddl,ddr,vr,hd,vl,hu:  4%  7%  4% 11% 16% 13% 17% 11% 15%
x264 [info]: i4 v,h,dc,ddl,ddr,vr,hd,vl,hu:  6%  7%  7%  9% 16% 13% 17% 10% 15%
x264 [info]: i8c dc,h,v,p: 41% 28% 15% 17%
x264 [info]: Weighted P-Frames: Y:14.8% UV:8.2%
x264 [info]: ref P L0: 50.0% 13.5% 15.4%  5.6%  3.8%  2.9%  2.4%  1.5%  1.3%  1.2%  1.1%  1.0%  0.3%  0.1%
x264 [info]: ref B L0: 77.7% 10.1%  4.2%  2.1%  1.5%  1.2%  1.1%  0.7%  0.8%  0.4%  0.2%
x264 [info]: ref B L1: 93.1%  6.9%
x264 [info]: kb/s:1394.87
encoded 130872 frames, 13.94 fps, 1394.87 kb/s

General
Complete name                            : Z:\Downloads\Gravity.mp4
Format                                   : MPEG-4
Format profile                           : Base Media
Codec ID                                 : isom
File size                                : 1 000 MiB
Duration                                 : 1h 30mn
Overall bit rate mode                    : Variable
Overall bit rate                         : 1 537 Kbps
Movie name                               : Gravity
ContentType                              : Short Film
Encoded date                             : UTC 2014-11-13 20:06:28
Tagged date                              : UTC 2014-11-13 20:06:56
Writing application                      : MkvToMp4 version: 0.224 (x64)
Cover                                    : Yes
Comment                                  : |TORCHDK|

Video
ID                                       : 1
Format                                   : AVC
Format/Info                              : Advanced Video Codec
Format profile                           : [email protected]
Format settings, CABAC                   : Yes
Format settings, ReFrames                : 12 frames
Codec ID                                 : avc1
Codec ID/Info                            : Advanced Video Coding
Duration                                 : 1h 30mn
Bit rate                                 : 1 395 Kbps
Maximum bit rate                         : 5 896 Kbps
Width                                    : 960 pixels
Height                                   : 400 pixels
Display aspect ratio                     : 2.40:1
Frame rate mode                          : Constant
Frame rate                               : 23.976 fps
Color space                              : YUV
Chroma subsampling                       : 4:2:0
Bit depth                                : 8 bits
Scan type                                : Progressive
Bits/(Pixel*Frame)                       : 0.152
Stream size                              : 908 MiB (91%)
Writing library                          : x264 core 130 r2273 b3065e6
Encoding settings                        : cabac=1 / ref=12 / deblock=1:-3:-2 / analyse=0x3:0x113 / me=umh / subme=11 / psy=1 / psy_rd=1.00:0.00 / mixed_ref=1 / me_range=48 / chroma_me=1 / trellis=2 / 8x8dct=1 / cqm=0 / deadzone=21,11 / fast_pskip=1 / chroma_qp_offset=-2 / threads=12 / lookahead_threads=2 / sliced_threads=0 / nr=0 / decimate=1 / interlaced=0 / bluray_compat=0 / constrained_intra=0 / bframes=9 / b_pyramid=2 / b_adapt=2 / b_bias=0 / direct=1 / weightb=1 / open_gop=0 / weightp=2 / keyint=250 / keyint_min=23 / scenecut=40 / intra_refresh=0 / rc=crf / mbtree=0 / crf=19.2 / qcomp=0.60 / qpmin=0 / qpmax=69 / qpstep=4 / ip_ratio=1.40 / pb_ratio=1.30 / aq=1:1.00
Language                                 : English
Encoded date                             : UTC 2014-11-13 20:06:28
Tagged date                              : UTC 2014-11-13 20:06:42

Audio
ID                                       : 2
Format                                   : AAC
Format/Info                              : Advanced Audio Codec
Format profile                           : LC
Codec ID                                 : 40
Duration                                 : 1h 30mn
Bit rate mode                            : Variable
Bit rate                                 : 132 Kbps
Maximum bit rate                         : 230 Kbps
Channel(s)                               : 2 channels
Channel positions                        : Front: L R
Sampling rate                            : 48.0 KHz
Compression mode                         : Lossy
Stream size                              : 87.4 MiB (9%)
Language                                 : Russian
Encoded date                             : UTC 2014-11-13 20:06:38
Tagged date                              : UTC 2014-11-13 20:06:42


Трекер:  [ 02-Дек-2014 21:00 ]

  

Скачать .torrent

Размер .torrent файла 20 KB


Размер: 1000 MB
Хэш (hash) релиза: b85ce1adea15a221e8d5cac521265bc3ffa235f1

Торренты, похожие на [VIDEO] Гравитация Gravity скачать торрент

Форум Название Автор Размер S L Добавлен
Видео (Фильмы/Клипы) ·· [VIDEO] Гравитация / Gravity (Альфонсо Куарон / Alfonso Cuarón) [2013, фантастика, триллер, драма, приключения, BDRip] [MP4, 1280x] Galfimbul 14000916161.3 GB 0 0 1478155116

09:38

3-Ноя-16

Еще никто не оставлял запись к записи скачать торрент [VIDEO] Гравитация Gravity . Будь первым!

!Обратная связь