IMDb: 3.8 HD Hidden Peaks | L'Expérience interdite - Flatliners 2017 | тег Призраки

Скачать через торрент [VIDEO] Доживём до понедельника бесплатно русская версия torrent активатор

Статистика раздачи
Размер:  584 MB   |    Зарегистрирован:  3 года 8 месяцев   |    .torrent скачан:  52 раза   |   
Раздают:  1  
   
загрузка...
 
Автор Сообщение

Galfimbul

avatar Galfimbul


Доживём до понедельника



Год выпуска: 1968
Страна: СССР, Киностудия им. М. Горького
Жанр: Мелодрама
Продолжительность: 01:40:14
Перевод: Не требуется
Cубтитры: нет
Режиссер: Станислав Ростоцкий
В ролях: Валерий Зубарев, Вячеслав Тихонов, Герман Качин, Дальвин Щербаков, Игорь Старыгин, Ирина Печерникова, Любовь Соколова, Людмила Архарова, Михаил Зимин, Нина Гребешкова, Нина Меньшикова, Ольга Жизнева, Ольга Остроумова, Роза Григорьева, Юрий Чернов
Описание: Учителю истории Мельникову знакомы и сомнения, и чувство неудовлетворенности. Пусть он не всегда бывает прав, но он борется, ищет, любит, преодолевает трудности и сомнения.



Качество: DVDRip
Формат: MP4
Видео: AVC at 679 Kbps, 640 x 288 (2.249) at 25.000 fps
Аудио: AAC at 128 Kbps, 2 channels, 48.0 KHz
GeneralComplete name : G:\Доживём до понедельника (1968) 640х.mp4Format : MPEG-4Format profile : Base MediaCodec ID : isomFile size : 584 MiBDuration : 1h 40mnOverall bit rate mode : VariableOverall bit rate : 814 KbpsMovie name : Доживём до понедельника (1968) [by Alien.09]Encoded date : UTC 2014-11-17 09:03:38Tagged date : UTC 2014-11-17 09:03:59Writing application : MkvToMp4 [www.mkvtomp4.ru] version: 0.224 (x64)hdvd : 0stik : 9

VideoID : 1Format : AVCFormat/Info : Advanced Video CodecFormat profile : [email protected] settings, CABAC : YesFormat settings, ReFrames : 3 framesCodec ID : avc1Codec ID/Info : Advanced Video CodingDuration : 1h 40mnBit rate : 679 KbpsMaximum bit rate : 2 217 KbpsWidth : 640 pixelsHeight : 288 pixelsDisplay aspect ratio : 2.25:1Frame rate mode : ConstantFrame rate : 25.000 fpsColor space : YUVChroma subsampling : 4:2:0Bit depth : 8 bitsScan type : ProgressiveBits/(Pixel*Frame) : 0.147Stream size : 487 MiB (83%)Writing library : x264 core 116 r2019M 9cc407dEncoding settings : cabac=1 / ref=3 / deblock=1:0:0 / analyse=0x1:0x131 / me=hex / subme=7 / psy=1 / psy_rd=1.00:0.20 / mixed_ref=1 / me_range=16 / chroma_me=1 / trellis=1 / 8x8dct=0 / cqm=0 / deadzone=21,11 / fast_pskip=1 / chroma_qp_offset=-3 / threads=12 / sliced_threads=0 / nr=0 / decimate=1 / interlaced=0 / bluray_compat=0 / constrained_intra=0 / bframes=3 / b_pyramid=0 / b_adapt=2 / b_bias=0 / direct=3 / weightb=1 / open_gop=0 / weightp=0 / keyint=250 / keyint_min=25 / scenecut=40 / intra_refresh=0 / rc_lookahead=40 / rc=2pass / mbtree=1 / bitrate=679 / ratetol=1.0 / qcomp=0.60 / qpmin=10 / qpmax=51 / qpstep=4 / cplxblur=20.0 / qblur=0.5 / vbv_maxrate=5000 / vbv_bufsize=1835 / nal_hrd=none / ip_ratio=1.40 / aq=1:1.00Language : RussianEncoded date : UTC 2014-11-17 09:03:38Tagged date : UTC 2014-11-17 09:03:47

AudioID : 2Format : AACFormat/Info : Advanced Audio CodecFormat profile : LCCodec ID : 40Duration : 1h 40mnBit rate mode : VariableBit rate : 128 KbpsMaximum bit rate : 162 KbpsChannel(s) : 2 channelsChannel positions : Front: L RSampling rate : 48.0 KHzCompression mode : LossyStream size : 91.7 MiB (16%)Language : RussianEncoded date : UTC 2014-11-17 09:03:44Tagged date : UTC 2014-11-17 09:03:47


Трекер:  [ 02-Дек-2014 21:00 ]

  

Скачать .torrent

Размер .torrent файла 12 KB


Размер: 584 MB
Хэш (hash) релиза: e57fcb44d0d3651254926de63a4a8f56d3f540eb

Еще никто не оставлял запись к записи скачать торрент [VIDEO] Доживём до понедельника . Будь первым!

!Обратная связь