Commenti | Black Book Omega A Family For Thanksgiving After The First Love Inclusive Christianity The Beezer Book Annual 1988 Susikoira Roi Ja Koulun Kingi Grafted In Boy Girl Romance Vol 2 Fury Ransomed We Live In The Southwest A Message Of Love Get Love Vol 06 Thinner Than A Hair | Willis Bouchey

Скачать через торрент [VIDEO] Чудеса Крестный отец из Кантона бесплатно русская версия torrent активатор

Статистика раздачи
Размер:  811 MB   |    Зарегистрирован:  3 года 7 месяцев   |    .torrent скачан:  33 раза   |   
Раздают:  1  
   
загрузка...
 
Автор Сообщение

Galfimbul

avatar Galfimbul


Чудеса / Крестный отец из Кантона / Мистер Гонконг / Miracles / The Canton Godfather / Mr Canton and Lady Rose / Ji ji
«'Overwhelmingly wonderful', 'Nothing short of miraculous...a must see' - The Hollywood Reporter»

Год выпуска: 1989
Страна: Гонконг
Жанр: комедия, боевик
Продолжительность: 02:02:07
Перевод: Авторский (одноголосый, закадровый) Ю.Немахов
Cубтитры: нет
Режиссер: Джеки Чан / Jackie Chan
Роли озвучивали: Джеки Чан, Анита Муи, Ах Леи Гуа, Чун Хсианг Ко, Ма У, Билл Тун, Кенни Би, Энтони Карпио, Энтони Чан, Чинг-Ван Чан и другие.
Описание: [i]В поисках лучшей жизни и без гроша в кармане Чарли приезжает в Гонконг. Свои последние центы он отдает бедной торговке за цветок розы, который должен принести ему удачу. И «счастливый» случай не заставил себя ждать. Чарли становится невольным участником перестрелки двух мафиозных кланов и выносит из-под огня главного босса одной из гангстерских группировок.
[b]Доп. информация
:

Качество: DVDRip / [url=...358980]DVD5[/url]
Формат: MP4
Видео кодек: H.264
Аудио кодек: AAC
Видео: 640x272 AR:2.35 792 kbps, 25 fps
Аудио: [Russian] 2 ch, 48 kHz, 128 kbps
...last pass...

x264.exe: --pass 2 --bitrate 792 --preset medium --profile high --level 4.1 --ref 8 --deblock -2:-2 --merange 24 --no-chroma-me --direct auto --b-adapt 2 --no-fast-pskip --no-dct-decimate --partitions all --subme 9 --me umh --colorprim bt470bg --transfer bt470bg --colormatrix bt470bg --sar 1:1 --stats "C:\VTS_01_1_001.log" --output "C:\VTS_01_1_001.mp4" "C:\Temp\0088.avs"

avs [info]: 640x272p 1:1 @ 25/1 fps (cfr)
x264 [info]: using SAR=1/1
x264 [info]: using cpu capabilities: MMX2 SSE2Fast SSSE3 SSE4.2 LZCNT
x264 [info]: profile High, level 4.1

x264 [info]: frame I:2252 Avg QP:19.68 size: 26259
x264 [info]: frame P:53086 Avg QP:22.53 size: 7797
x264 [info]: frame B:127826 Avg QP:26.60 size: 1974
x264 [info]: consecutive B-frames: 2.8% 4.4% 24.0% 68.8%
x264 [info]: mb I I16..4: 8.4% 53.8% 37.9%
x264 [info]: mb P I16..4: 1.2% 6.6% 3.3% P16..4: 46.4% 15.7% 17.6% 1.7% 0.7% skip: 6.9%
x264 [info]: mb B I16..4: 0.1% 0.9% 0.5% B16..8: 35.4% 9.5% 3.3% direct: 3.0% skip:47.2% L0:36.3% L1:48.2% BI:15.5%
x264 [info]: 8x8 transform intra:58.6% inter:54.1%
x264 [info]: direct mvs spatial:91.5% temporal:8.5%
x264 [info]: coded y,uvDC,uvAC intra: 84.8% 75.9% 39.5% inter: 21.8% 17.6% 4.3%
x264 [info]: i16 v,h,dc,p: 33% 20% 7% 39%
x264 [info]: i8 v,h,dc,ddl,ddr,vr,hd,vl,hu: 12% 7% 3% 9% 14% 16% 13% 13% 12%
x264 [info]: i4 v,h,dc,ddl,ddr,vr,hd,vl,hu: 11% 7% 2% 9% 15% 16% 14% 13% 13%
x264 [info]: i8c dc,h,v,p: 32% 26% 24% 18%
x264 [info]: Weighted P-Frames: Y:5.5% UV:0.9%
x264 [info]: ref P L0: 55.1% 15.0% 14.6% 3.9% 3.5% 2.8% 2.7% 1.7% 0.6% 0.0%
x264 [info]: ref B L0: 87.1% 7.0% 2.7% 1.2% 1.0% 0.7% 0.4%
x264 [info]: ref B L1: 95.4% 4.6%
x264 [info]: kb/s:792.05

x264 [total]: encoded 183164 frames, 45.83 fps, 792.05 kb/s
GeneralComplete name : D:\Torrents\Miracles The Canton Godfather.1989.DVDRip.x264.640x.rip by Frost O.S.mp4Format : MPEG-4Format profile : Base MediaCodec ID : isomFile size : 811 MiBDuration : 2h 2mnOverall bit rate mode : VariableOverall bit rate : 929 KbpsMovie name : Miracles The Canton Godfather 1989 DVDRip x264 640x rip by Frost O SContentType : Short FilmEncoded date : UTC 2014-11-17 14:50:05Tagged date : UTC 2014-11-17 14:51:06Writing application : MkvToMp4 version: 0.224 (x64)

VideoID : 1Format : AVCFormat/Info : Advanced Video CodecFormat profile : [email protected] settings, CABAC : YesFormat settings, ReFrames : 8 framesCodec ID : avc1Codec ID/Info : Advanced Video CodingDuration : 2h 2mnBit rate : 792 KbpsMaximum bit rate : 3 266 KbpsWidth : 640 pixelsHeight : 272 pixelsDisplay aspect ratio : 2.35:1Frame rate mode : ConstantFrame rate : 25.000 fpsColor space : YUVChroma subsampling : 4:2:0Bit depth : 8 bitsScan type : ProgressiveBits/(Pixel*Frame) : 0.182Stream size : 692 MiB (85%)Writing library : x264 core 130 r2273 b3065e6Encoding settings : cabac=1 / ref=8 / deblock=1:-2:-2 / analyse=0x3:0x133 / me=umh / subme=9 / psy=1 / psy_rd=1.00:0.00 / mixed_ref=1 / me_range=24 / chroma_me=0 / trellis=1 / 8x8dct=1 / cqm=0 / deadzone=21,11 / fast_pskip=0 / chroma_qp_offset=-2 / threads=3 / lookahead_threads=1 / sliced_threads=0 / nr=0 / decimate=0 / interlaced=0 / bluray_compat=0 / constrained_intra=0 / bframes=3 / b_pyramid=2 / b_adapt=2 / b_bias=0 / direct=3 / weightb=1 / open_gop=0 / weightp=2 / keyint=250 / keyint_min=25 / scenecut=40 / intra_refresh=0 / rc_lookahead=40 / rc=2pass / mbtree=1 / bitrate=792 / ratetol=1.0 / qcomp=0.60 / qpmin=0 / qpmax=69 / qpstep=4 / cplxblur=20.0 / qblur=0.5 / ip_ratio=1.40 / aq=1:1.00Language : EnglishEncoded date : UTC 2014-11-17 14:50:05Tagged date : UTC 2014-11-17 14:50:13Color primaries : BT.601 PALTransfer characteristics : BT.470 System B, BT.470 System GMatrix coefficients : BT.601

AudioID : 2Format : AACFormat/Info : Advanced Audio CodecFormat profile : LCCodec ID : 40Duration : 2h 2mnBit rate mode : VariableBit rate : 128 KbpsMaximum bit rate : 132 KbpsChannel(s) : 2 channelsChannel positions : Front: L RSampling rate : 48.0 KHzCompression mode : LossyStream size : 112 MiB (14%)Language : RussianEncoded date : UTC 2014-11-17 14:50:12Tagged date : UTC 2014-11-17 14:50:13


Трекер:  [ 02-Дек-2014 21:00 ]

  

Скачать .torrent

Размер .torrent файла 16 KB


Размер: 811 MB
Хэш (hash) релиза: 5ea8c43f1ecfb1f8ce9df4ab345a33eb3f11aea2

Еще никто не оставлял запись к записи скачать торрент [VIDEO] Чудеса Крестный отец из Кантона . Будь первым!

!Обратная связь