The Rain | My Date With A Vampire III | One Day at a Time

Скачать через торрент [VIDEO] Геракл Hercules бесплатно русская версия torrent активатор

Статистика раздачи
Размер:  1.03 GB   |    Зарегистрирован:  3 года 7 месяцев   |    .torrent скачан:  45 раз   |   
Раздают:  1  
   
загрузка...
 
Автор Сообщение

Galfimbul

avatar Galfimbul


HerculesГераклТеатральная версия


Год выпуска: 2014
Страна: США
Жанр: боевик, приключения
Продолжительность: 01:38:05
Перевод: Профессиональный (дублированный) [[i]Лицензия iTunes] - Театральная версия. Полный перевод[/i]
Режиссер: Бретт Рэтнер | Brett Ratner

В ролях: Дуэйн Джонсон (Dwayne Johnson) | Иэн МакШейн (Ian McShane) | Джон Хёрт (John Hurt) | Руфус Сьюэлл (Rufus Sewell) | Аксель Хенни (Aksel Hennie) | Ингрид Больсё Бердаль (Ingrid Bolsø Berdal) | Рис Ричи (Reece Ritchie) | Джозеф Файнс (Joseph Fiennes)
Более тысячи лет назад измученная душа скиталась по Земле, полубог, получеловек — Геракл — могучий сын царя богов Зевса, совершив все 12 подвигов, потерял семью и теперь находит утешение только в кровавых битвах.





Качество: [i]HDRip
([i]BDRip 720p)
Формат: MP4
Видео: AVC High L3.1, 800х328 (2.40:1), 1 366 Kbps, 23.976 fps
Аудио: AAC, 2 ch, 48 kHz, 132 Kbps[/i]

x264 [info]: frame I:1857  Avg QP:16.73  size: 48468
x264 [info]: frame P:41868 Avg QP:19.92  size: 12915
x264 [info]: frame B:97364 Avg QP:23.35  size:  3845
x264 [info]: consecutive B-frames:  3.5%  5.2% 25.2% 66.2%
x264 [info]: mb I  I16..4:  8.5% 61.1% 30.3%
x264 [info]: mb P  I16..4:  1.5%  8.8%  3.3%  P16..4: 36.4% 21.7% 15.2%  0.0%  0.0%    skip:13.1%
x264 [info]: mb B  I16..4:  0.2%  1.3%  0.7%  B16..8: 38.7%  9.3%  3.6%  direct: 4.2%  skip:42.1%  L0:39.4% L1:46.2% BI:14.4%
x264 [info]: 8x8 transform intra:63.3% inter:66.4%
x264 [info]: coded y,uvDC,uvAC intra: 83.9% 86.7% 59.6% inter: 24.6% 23.4% 3.1%
x264 [info]: i16 v,h,dc,p: 35% 15% 10% 40%
x264 [info]: i8 v,h,dc,ddl,ddr,vr,hd,vl,hu: 14%  8%  4%  9% 14% 14% 13% 12% 12%
x264 [info]: i4 v,h,dc,ddl,ddr,vr,hd,vl,hu: 12%  6%  3%  9% 15% 15% 14% 12% 14%
x264 [info]: i8c dc,h,v,p: 40% 22% 20% 18%
x264 [info]: Weighted P-Frames: Y:8.9% UV:5.6%
x264 [info]: ref P L0: 58.7% 16.3% 15.4%  8.5%  1.0%
x264 [info]: ref B L0: 87.0%  9.9%  3.1%
x264 [info]: ref B L1: 93.6%  6.4%
x264 [info]: kb/s:1366.32
encoded 141089 frames, 79.81 fps, 1366.32 kb/s

General
Complete name                            : Z:\Downloads\Hercules.mp4
Format                                   : MPEG-4
Format profile                           : Base Media
Codec ID                                 : isom
File size                                : 1.03 GiB
Duration                                 : 1h 38mn
Overall bit rate mode                    : Variable
Overall bit rate                         : 1 506 Kbps
Movie name                               : Hercules
ContentType                              : Short Film
Encoded date                             : UTC 2014-11-17 23:24:28
Tagged date                              : UTC 2014-11-17 23:25:00
Writing application                      : MkvToMp4 version: 0.224 (x64)
Cover                                    : Yes
Comment                                  : |TORCHDK|

Video
ID                                       : 1
Format                                   : AVC
Format/Info                              : Advanced Video Codec
Format profile                           : [email protected]
Format settings, CABAC                   : Yes
Format settings, ReFrames                : 4 frames
Codec ID                                 : avc1
Codec ID/Info                            : Advanced Video Coding
Duration                                 : 1h 38mn
Bit rate                                 : 1 366 Kbps
Maximum bit rate                         : 6 407 Kbps
Width                                    : 800 pixels
Height                                   : 328 pixels
Display aspect ratio                     : 2.40:1
Frame rate mode                          : Constant
Frame rate                               : 23.976 fps
Color space                              : YUV
Chroma subsampling                       : 4:2:0
Bit depth                                : 8 bits
Scan type                                : Progressive
Bits/(Pixel*Frame)                       : 0.217
Stream size                              : 958 MiB (91%)
Writing library                          : x264 core 130 r2273 b3065e6
Encoding settings                        : cabac=1 / ref=3 / deblock=1:-2:-1 / analyse=0x3:0x113 / me=umh / subme=9 / psy=1 / psy_rd=1.00:0.00 / mixed_ref=1 / me_range=32 / chroma_me=1 / trellis=1 / 8x8dct=1 / cqm=0 / deadzone=21,11 / fast_pskip=1 / chroma_qp_offset=-2 / threads=12 / lookahead_threads=1 / sliced_threads=0 / nr=0 / decimate=1 / interlaced=0 / bluray_compat=0 / constrained_intra=0 / bframes=3 / b_pyramid=2 / b_adapt=2 / b_bias=0 / direct=1 / weightb=1 / open_gop=0 / weightp=2 / keyint=250 / keyint_min=23 / scenecut=40 / intra_refresh=0 / rc_lookahead=40 / rc=crf / mbtree=1 / crf=19.5 / qcomp=0.60 / qpmin=0 / qpmax=69 / qpstep=4 / ip_ratio=1.40 / aq=1:1.00
Language                                 : English
Encoded date                             : UTC 2014-11-17 23:24:28
Tagged date                              : UTC 2014-11-17 23:24:43

Audio
ID                                       : 2
Format                                   : AAC
Format/Info                              : Advanced Audio Codec
Format profile                           : LC
Codec ID                                 : 40
Duration                                 : 1h 38mn
Bit rate mode                            : Variable
Bit rate                                 : 132 Kbps
Maximum bit rate                         : 181 Kbps
Channel(s)                               : 2 channels
Channel positions                        : Front: L R
Sampling rate                            : 48.0 KHz
Compression mode                         : Lossy
Stream size                              : 92.2 MiB (9%)
Language                                 : Russian
Encoded date                             : UTC 2014-11-17 23:24:39
Tagged date                              : UTC 2014-11-17 23:24:43


Трекер:  [ 02-Дек-2014 21:00 ]

  

Скачать .torrent

Размер .torrent файла 10 KB


Размер: 1.03 GB
Хэш (hash) релиза: 7b1157b674b2345cd330ff9730c135cb7e0eae28

Торренты, похожие на [VIDEO] Геракл Hercules скачать торрент

Форум Название Автор Размер S L Добавлен
Видео (Фильмы/Клипы) ·· [VIDEO] Геракл / Hercules (Бретт Рэтнер / Brett Ratner) [2014, США, боевик, приключения, фэнтези, HDRip][MP4, 320x][Расширенная версия / Extended Cut] Dub Galfimbul 373479392356 MB 0 0 1438283810

22:16

30-Июл-15

Еще никто не оставлял запись к записи скачать торрент [VIDEO] Геракл Hercules . Будь первым!

!Обратная связь