All 13 Skyforge Classes (Mmorpg) | Voir la fiche | The Neon Demon - Cliff Martinez (OST) (2016)

Скачать через торрент [VIDEO] ...А зори здесь тихие Серии 1-2 из 2 бесплатно русская версия torrent активатор

Статистика раздачи
Размер:  1.02 GB   |    Зарегистрирован:  3 года 7 месяцев   |    .torrent скачан:  65 раз   |   
Раздают:  1  
   
загрузка...
 
Автор Сообщение

Galfimbul

avatar Galfimbul


...А зори здесь тихие



Год выпуска: 1972

Страна: СССР, Киностудия им. М. Горького
Жанр: Военный, драма, экранизация
Продолжительность: 01:34:14; 01:25:53
Перевод: Не требуется
Cубтитры: нет
Режиссер: Станислав Ростоцкий
В ролях: Андрей Мартынов, Ирина Шевчук, Ольга Остроумова, Елена Драпеко, Ирина Долганова, Екатерина Маркова, Людмила Зайцева, Алексей Чернов, Алла Мещерякова, Нина Емельянова, Юрий Сорокин, Борис Токарев (I), Георгий Мартынюк, Кирилл Столяров, Игорь Костолевский, Владимир Ивашов, Виктор Авдюшко, Ирина Кмит, Наталья Пярн, Владимир Рудый, Евгений Меньшов, Светлана Борисова
Описание: В прифронтовой полосе группа девушек-зенитчиц вынуждена вступить в неравный бой с вражескими десантниками. Эти девчонки мечтали о большой любви, нежности, семейном тепле — но на их долю выпала жестокая война, и они до конца выполнили свой воинский долг...



Качество: DVDRip
Формат: MP4
Видео: AVC at 679 Kbps, 640 x 272 (2.400) at 25.000 fps
Аудио: AAC at 127 Kbps, 2 channels, 48.0 KHz
GeneralComplete name : G:\...А зори здесь тихие (1972) 640х\...А зори здесь тихие (1972) 01 серия.mp4Format : MPEG-4Format profile : Base MediaCodec ID : isomFile size : 549 MiBDuration : 1h 34mnOverall bit rate mode : VariableOverall bit rate : 814 KbpsMovie name : A zori zdes tihie 01 (1972) [by Alien.09]Encoded date : UTC 2014-11-18 08:36:13Tagged date : UTC 2014-11-18 08:36:32Writing application : MkvToMp4 version: 0.224 (x64)hdvd : 0stik : 9

VideoID : 1Format : AVCFormat/Info : Advanced Video CodecFormat profile : [email protected] settings, CABAC : YesFormat settings, ReFrames : 3 framesCodec ID : avc1Codec ID/Info : Advanced Video CodingDuration : 1h 34mnBit rate : 679 KbpsMaximum bit rate : 3 202 KbpsWidth : 640 pixelsHeight : 272 pixelsDisplay aspect ratio : 2.40:1Frame rate mode : ConstantFrame rate : 25.000 fpsColor space : YUVChroma subsampling : 4:2:0Bit depth : 8 bitsScan type : ProgressiveBits/(Pixel*Frame) : 0.156Stream size : 458 MiB (83%)Writing library : x264 core 125 r2200M 999b753Encoding settings : cabac=1 / ref=3 / deblock=1:0:0 / analyse=0x1:0x131 / me=hex / subme=7 / psy=1 / psy_rd=1.00:0.20 / mixed_ref=1 / me_range=16 / chroma_me=1 / trellis=1 / 8x8dct=0 / cqm=0 / deadzone=21,11 / fast_pskip=1 / chroma_qp_offset=-3 / threads=4 / lookahead_threads=1 / sliced_threads=0 / nr=0 / decimate=1 / interlaced=0 / bluray_compat=0 / constrained_intra=0 / bframes=3 / b_pyramid=0 / b_adapt=2 / b_bias=0 / direct=3 / weightb=1 / open_gop=0 / weightp=0 / keyint=250 / keyint_min=25 / scenecut=40 / intra_refresh=0 / rc_lookahead=40 / rc=2pass / mbtree=1 / bitrate=679 / ratetol=1.0 / qcomp=0.60 / qpmin=10 / qpmax=51 / qpstep=4 / cplxblur=20.0 / qblur=0.5 / vbv_maxrate=5000 / vbv_bufsize=1835 / nal_hrd=none / ip_ratio=1.40 / aq=1:1.00Language : RussianEncoded date : UTC 2014-11-18 08:36:13Tagged date : UTC 2014-11-18 08:36:20

AudioID : 2Format : AACFormat/Info : Advanced Audio CodecFormat profile : LCCodec ID : 40Duration : 1h 34mnBit rate mode : VariableBit rate : 127 KbpsMaximum bit rate : 177 KbpsChannel(s) : 2 channelsChannel positions : Front: L RSampling rate : 48.0 KHzCompression mode : LossyStream size : 85.8 MiB (16%)Language : RussianEncoded date : UTC 2014-11-18 08:36:18Tagged date : UTC 2014-11-18 08:36:20


Трекер:  [ 02-Дек-2014 21:00 ]

  

Скачать .torrent

Размер .torrent файла 11 KB


Размер: 1.02 GB
Хэш (hash) релиза: 55c1bd8131e6bfed164ed6c2ffd7c52f98cdd21b

Еще никто не оставлял запись к записи скачать торрент [VIDEO] ...А зори здесь тихие Серии 1-2 из 2 . Будь первым!

!Обратная связь