[Crime] Narcos S01 Complete German DL NetflixUHD x264 - TVS | الفصل السابق> | TheVideo

Скачать через торрент [ANIME] Одному лишь Богу ведомый мир Мир, ведомый лишь Богу бесплатно русская версия torrent активатор

Статистика раздачи
Размер:  164 MB   |    Зарегистрирован:  3 года 7 месяцев   |    .torrent скачан:  30 раз   |   
Раздают:  1  
   
загрузка...
 
Автор Сообщение

Galfimbul

avatar Galfimbul


Мир, ведомый лишь Богу OVA / Kami nomi zo Shiru Sekai: 4-nin to Idol

Год выпуска: 2011
Страна: Япония
Жанр: комедия
Продолжительность: 00:24:40
Перевод: русские субтитры от: Advantage
Режиссер: Такаянаги Сигэхито
Студия:
Описание:
Это сайд-стори, где музыкальная группа Тихиро чтобы получить право создать клуб, обяжутся сдать тест по английскому языку на 100 баллов, и для этого возьмут в учителя Кэйму.© MoBster, World Art
Информационные ссылки: AniDB | World Art | MAL
Качество: DVDRip | Формат: MP4 | Видео кодек: XviD | Аудио кодек: AAC
Видео: 640x360 (16:9), 800 kb/s, 23.976 fps | Аудио: 128 kb/s, 48 kHz, 2ch
General
Complete name : F:\[ANIME СПАМ Kami nomi zo Shiru Sekai - OVA\Kami nomi zo Shiru Sekai - OVA (DVD 640x360 XviD AAC).mp4
Format : MPEG-4
Format profile : Base Media / Version 2
Codec ID : mp42
File size : 164 MiB
Duration : 24mn 39s
Overall bit rate : 929 Kbps
Encoded date : UTC 2011-09-24 22:21:12
Tagged date : UTC 2011-09-24 22:21:12

Video
ID : 201
Format : MPEG-4 Visual
Format profile : Advanced [email protected]
Format settings, BVOP : No
Format settings, QPel : No
Format settings, GMC : No warppoints
Format settings, Matrix : Default (H.263)
Codec ID : 20
Duration : 24mn 39s
Bit rate mode : Variable
Bit rate : 799 Kbps
Maximum bit rate : 7 268 Kbps
Width : 640 pixels
Height : 360 pixels
Display aspect ratio : 16:9
Frame rate mode : Constant
Frame rate : 23.976 fps
Color space : YUV
Chroma subsampling : 4:2:0
Bit depth : 8 bits
Scan type : Progressive
Compression mode : Lossy
Bits/(Pixel*Frame) : 0.145
Stream size : 141 MiB (86%)
Writing library : XviD 61
Encoded date : UTC 2011-09-24 22:21:12
Tagged date : UTC 2011-09-24 22:21:20

Audio
ID : 101
Format : AAC
Format/Info : Advanced Audio Codec
Format profile : LC
Codec ID : 40
Duration : 24mn 39s
Bit rate mode : Variable
Bit rate : 128 Kbps
Maximum bit rate : 152 Kbps
Channel(s) : 2 channels
Channel positions : Front: L R
Sampling rate : 48.0 KHz
Compression mode : Lossy
Stream size : 22.6 MiB (14%)
Encoded date : UTC 2011-09-24 22:21:19
Tagged date : UTC 2011-09-24 22:21:20

Релиз подготовлен:



Трекер:  [ 02-Дек-2014 21:00 ]

  

Скачать .torrent

Размер .torrent файла 13 KB


Размер: 164 MB
Хэш (hash) релиза: 7ace046f5a8cd87be444f11de5c815fadf9e692f

Еще никто не оставлял запись к записи скачать торрент [ANIME] Одному лишь Богу ведомый мир Мир, ведомый лишь Богу . Будь первым!

!Обратная связь