Classics | Trickster: Edogawa Ranpo “Shounen Tanteidan” yori OVA | Celebrating Jon Lord.

Скачать через торрент [MC] Pitbull - Bon, Bon бесплатно русская версия torrent активатор

Статистика раздачи
Размер:  31 MB   |    Зарегистрирован:  3 года 7 месяцев   |    .torrent скачан:  28 раз   |   
Раздают:  1  
   
загрузка...
 
Автор Сообщение

Galfimbul

avatar Galfimbul


Pitbull - Bon, Bon
Жанр: Rap, Hip-Hop
Продолжительность: 00:03:37
Год выпуска: 2010
Качество: WEBRip
Контейнер: MP4
Видео кодек: XviD
Аудио кодек: AAC
Видео: 640x360, (16:9), 1068 Kb/s, 23.976 fps
Аудио: 128 Kb/s, 2 channels, 44.1 KHz
General
Complete name : E:\Encode\Pitbull - Bon, Bon.mp4
Format : MPEG-4
Format profile : Base Media / Version 2
Codec ID : mp42
File size : 31.0 MiB
Duration : 3mn 36s
Overall bit rate : 1 199 Kbps
Encoded date : UTC 2011-10-20 15:00:33
Tagged date : UTC 2011-10-20 15:00:33

Video
ID : 201
Format : MPEG-4 Visual
Format profile : Advanced [email protected]
Format settings, BVOP : No
Format settings, QPel : No
Format settings, GMC : No warppoints
Format settings, Matrix : Default (H.263)
Codec ID : 20
Duration : 3mn 36s
Bit rate mode : Variable
Bit rate : 1 068 Kbps
Maximum bit rate : 2 853 Kbps
Width : 640 pixels
Height : 360 pixels
Display aspect ratio : 16:9
Frame rate mode : Constant
Frame rate : 23.976 fps
Color space : YUV
Chroma subsampling : 4:2:0
Bit depth : 8 bits
Scan type : Progressive
Compression mode : Lossy
Bits/(Pixel*Frame) : 0.193
Stream size : 27.6 MiB (89%)
Writing library : XviD 61
Encoded date : UTC 2011-10-20 15:00:33
Tagged date : UTC 2011-10-20 15:00:35

Audio
ID : 101
Format : AAC
Format/Info : Advanced Audio Codec
Format profile : LC
Codec ID : 40
Duration : 3mn 36s
Bit rate mode : Variable
Bit rate : 128 Kbps
Maximum bit rate : 140 Kbps
Channel(s) : 2 channels
Channel positions : Front: L R
Sampling rate : 44.1 KHz
Compression mode : Lossy
Stream size : 3.30 MiB (11%)
Encoded date : UTC 2011-10-20 15:00:35
Tagged date : UTC 2011-10-20 15:00:35

Релиз подготовлен:



Трекер:  [ 02-Дек-2014 21:00 ]

  

Скачать .torrent

Размер .torrent файла 10 KB


Размер: 31 MB
Хэш (hash) релиза: 0e39e8a3998d0fdf7248b7329abe093a62c5f226

Еще никто не оставлял запись к записи скачать торрент [MC] Pitbull - Bon, Bon . Будь первым!

!Обратная связь