Marvel's Inhumans saison 1 épisode 6 | Download | Télécharger Part 8

Скачать через торрент [ANIME] Клятый Коварный Кубик C3: Cube x Cursed x Curious бесплатно русская версия torrent активатор

Статистика раздачи
Размер:  1.87 GB   |    Зарегистрирован:  3 года 7 месяцев   |    .torrent скачан:  34 раза   |   
Раздают:  1  
   
загрузка...
 
Автор Сообщение

Galfimbul

avatar Galfimbul


Клятый Коварный Кубик / C3: Cube x Cursed x Curious

Год выпуска: 2011
Страна: Япония
Жанр: приключения, мистика
Продолжительность: 12 эп. по ~24 мин.
Перевод: русские субтитры от: Advantage
Режиссер: Онума Син
Студия:
Описание:
Отец-ученый, вечно пропадающий в экспедициях, обожает присылать сыну-старшекласснику по имени Харуаки Яти всякие диковинки. Причина не только в отцовской любви, ведь Яти-старший – исследователь тайного, а Яти-младший – природный экстрасенс, от которого «отскакивают» сглаз и порча. Да еще и дом Яти стоит в святом месте, где легче бороться с темными силами. Так что Харуаки не удивился очередной посылке в виде тяжеленного черного куба, который сразу же отправил в кладовую. Кто бы сомневался, что ночью куб превратится в милую синеволосую девочку, что в костюме Евы вылезет инспектировать хозяйский холодильник!

Ночная гостья представилась как Фиа (что значит «страх») и объяснила, что она – «орудие бед», инструмент наказания людей всеми видами страха и ужаса, то есть «страхом в кубе». Но так как у Фиа есть душа, то она отягощена тяжелым кармическим грузом, и единственный путь спасения – это искренняя благодарность и светлые чувства других людей. Харуаки, как добрый парень, да еще иммунный к любым проклятиям, решил поддержать новую знакомую и поселил ее у себя. Вот только бедный герой вскоре выяснил, что весьма многие из окружающих его милых девушек и красивых женщин – такие же «орудия». Какие тут светлые чувства, как жить-то теперь? Кришна, помоги!© Hollow, World Art
Информационные ссылки: AniDB | World Art | MAL
Качество: HDTVRip | Формат: MP4 | Видео кодек: XviD | Аудио кодек: AAC
Видео: 640x360 (16:9), 800 kb/s, 23.976 fps | Аудио: 128 kb/s, 48 kHz, 2ch
01. I Have No Idea Who Goes to Bed
02. Do Something, to Something, to Somewhere
03. The Antimony of Their Temperatures
04. A Mother and a Body Pillow for the Night
05. Even if I Were to Be Cursed
06. Delicate Like a Glass Ball
07. Does Not Appear in the Eyes of the Seer
08. Like a Curse One Cannot Escape
09. Something Eccentric About She Who Returned
10. The Sadist is Nowhere
11. The Insane Believer is Somewhere
12. Transcendents Can Be Anywhere
General
Complete name : K:\Torrents\Мои раздачи\[ANIME СПАМ C3\C3 - 01.mp4
Format : MPEG-4
Format profile : Base Media / Version 2
Codec ID : mp42
File size : 160 MiB
Duration : 23mn 59s
Overall bit rate mode : Variable
Overall bit rate : 930 Kbps
Encoded date : UTC 2011-10-22 23:57:14
Tagged date : UTC 2011-10-22 23:57:14

Video
ID : 201
Format : MPEG-4 Visual
Format profile : Advanced [email protected]
Format settings, BVOP : No
Format settings, QPel : No
Format settings, GMC : No warppoints
Format settings, Matrix : Default (H.263)
Codec ID : 20
Duration : 23mn 59s
Bit rate mode : Variable
Bit rate : 799 Kbps
Maximum bit rate : 7 177 Kbps
Width : 640 pixels
Height : 360 pixels
Display aspect ratio : 16:9
Frame rate mode : Constant
Frame rate : 23.976 fps
Color space : YUV
Chroma subsampling : 4:2:0
Bit depth : 8 bits
Scan type : Progressive
Compression mode : Lossy
Bits/(Pixel*Frame) : 0.145
Stream size : 137 MiB (86%)
Writing library : XviD 61
Encoded date : UTC 2011-10-22 23:57:14
Tagged date : UTC 2011-10-22 23:57:22

Audio
ID : 101
Format : AAC
Format/Info : Advanced Audio Codec
Format profile : LC
Codec ID : 40
Duration : 23mn 59s
Bit rate mode : Variable
Bit rate : 128 Kbps
Maximum bit rate : 149 Kbps
Channel(s) : 2 channels
Channel positions : Front: L R
Sampling rate : 48.0 KHz
Compression mode : Lossy
Stream size : 21.9 MiB (14%)
Encoded date : UTC 2011-10-22 23:57:22
Tagged date : UTC 2011-10-22 23:57:22

Релиз подготовлен:



Трекер:  [ 02-Дек-2014 21:00 ]

  

Скачать .torrent

Размер .torrent файла 19 KB


Размер: 1.87 GB
Хэш (hash) релиза: 05c275537ce91544c87b1b659831db23b6141c46

Еще никто не оставлял запись к записи скачать торрент [ANIME] Клятый Коварный Кубик C3: Cube x Cursed x Curious . Будь первым!

!Обратная связь