Garo - Goldstorm | Benedict Wong | now you see me 2

Скачать через торрент [ANIME] Ан-Го Un-Go бесплатно русская версия torrent активатор

Статистика раздачи
Размер:  1.64 GB   |    Зарегистрирован:  3 года 7 месяцев   |    .torrent скачан:  37 раз   |   
Раздают:  1  
   
загрузка...
 
Автор Сообщение

Galfimbul

avatar Galfimbul



Год выпуска: 2011
Страна: Япония
Жанр: приключения, детектив
Продолжительность: 11 эп, по ~24 мин
Перевод: русские субтитры от: [Dreamers Team]
Режиссер: Мидзусима Сэйдзи
Студия:
Описание:
В недалеком будущем Япония пережила очередную войну и медленно, с трудом, снова поднимается из руин. Любая война – это ломка обыденности, театр разрушения, на сцене которого нет места добру и злу, а есть только цель и средства. Но рано или поздно жизнь входит в привычное русло, и вчерашние герои зря надеются, что «война все спишет». С такими мыслями персонажи отправляются на бал в старинном стиле, который устраивает Кано, крупный политик и бизнесмен. Будучи под следствием по подозрению в наживе на военных поставках, хозяин дома желает сохранить лицо и сделать громкое заявление, но… падает на сцене с ножом в спине.

Однако по иронии судьбы на балу уже собрались лучшие специалисты Японии по расследованию преступлений! Сэйген Хаями из полиции, Идзуми Кояма из прокуратуры, Риэ Кайсё, дочь и представитель Ринроку Кайсё, великого детектива-затворника, японского Ниро Вулфа. И в завершение картины – знаменитый «детектив-неудачник» Синдзюро Юки с таинственной напарницей Ингой, чьи способности выходят далеко за рамки объяснимого. Разумеется, вместе они способны разгадать любую загадку, вот только все ли тайны стоит выносить на свет Божий? В любом случае, правду будем знать хотя бы мы, зрители!© Hollow, World Art
Информационные ссылки: AniDB | World Art | MAL
Качество: DTVRip [url=...3775407][Исходник][/url] | Формат: MP4 | Видео кодек: XviD | Аудио кодек: AAC
Видео: 640x360 (16:9), 800 kb/s, 23.976 fps | Аудио: 128 kb/s, 48 kHz, 2ch
01. Murder at the Ball.
02. Song of the Heartless.
03. Masked Mansion.
04. Famous House.
05. The Phantom Statue.
06. The Code Too Simple.
07. Daydream.
08. The King of Paradise.
09. Kaishou Rinroku`s Crime.
10. Kaishou Rinroku`s Funeral.
11. I`m Just Searching.
General
Complete name : K:\Torrents\Мои раздачи\[ANIME СПАМ Un-Go\Un-Go - 01 [640x360 XviD AAC].mp4
Format : MPEG-4
Format profile : Base Media / Version 2
Codec ID : mp42
File size : 153 MiB
Duration : 22mn 55s
Overall bit rate mode : Variable
Overall bit rate : 930 Kbps
Encoded date : UTC 2012-01-10 23:52:40
Tagged date : UTC 2012-01-10 23:52:40

Video
ID : 201
Format : MPEG-4 Visual
Format profile : Advanced [email protected]
Format settings, BVOP : No
Format settings, QPel : No
Format settings, GMC : No warppoints
Format settings, Matrix : Default (H.263)
Codec ID : 20
Duration : 22mn 55s
Bit rate mode : Variable
Bit rate : 800 Kbps
Maximum bit rate : 6 983 Kbps
Width : 640 pixels
Height : 360 pixels
Display aspect ratio : 16:9
Frame rate mode : Constant
Frame rate : 23.976 fps
Color space : YUV
Chroma subsampling : 4:2:0
Bit depth : 8 bits
Scan type : Progressive
Compression mode : Lossy
Bits/(Pixel*Frame) : 0.145
Stream size : 131 MiB (86%)
Writing library : XviD 61
Encoded date : UTC 2012-01-10 23:52:40
Tagged date : UTC 2012-01-10 23:52:48

Audio
ID : 101
Format : AAC
Format/Info : Advanced Audio Codec
Format profile : LC
Codec ID : 40
Duration : 22mn 55s
Bit rate mode : Variable
Bit rate : 128 Kbps
Maximum bit rate : 147 Kbps
Channel(s) : 2 channels
Channel positions : Front: L R
Sampling rate : 48.0 KHz
Compression mode : Lossy
Stream size : 21.0 MiB (14%)
Encoded date : UTC 2012-01-10 23:52:47
Tagged date : UTC 2012-01-10 23:52:48

Релиз подготовлен:



Трекер:  [ 02-Дек-2014 21:00 ]

  

Скачать .torrent

Размер .torrent файла 17 KB


Размер: 1.64 GB
Хэш (hash) релиза: 3422659bc3d848b59bbd696d66def71ba711aa33

Еще никто не оставлял запись к записи скачать торрент [ANIME] Ан-Го Un-Go . Будь первым!

!Обратная связь