Spark, una aventura espacial | Heavy Object | Re:Помощ от модератор (администратор)

Скачать через торрент [ANIME] Тамаюра Tamayura: Hitotose бесплатно русская версия torrent активатор

Статистика раздачи
Размер:  1.63 GB   |    Зарегистрирован:  3 года 7 месяцев   |    .torrent скачан:  30 раз   |   
Раздают:  1  
   
загрузка...
 
Автор Сообщение

Galfimbul

avatar Galfimbul


Тамаюра [ТВ] / Tamayura: Hitotose
Год выпуска: 2011
Страна: Япония
Жанр: повседневность
Продолжительность: 12 эп. по ~25 мин.
Субтитры: русские субтитры от: Dreamers Team
Режиссер: Сато Дзюнъити
Студия:
Описание:
Девятиклассница Фуу Саватари потеряла отца, и боль утраты все еще свежа. Но вскоре девочка поняла, что нельзя замыкаться в своем горе и отгораживаться от мира, ибо, познавая мир, она познает себя, а познав себя – станет свободной. Фуу достает старую отцовскую камеру и погружается в фотографию, вернувшись на путь взросления и постижения с виду простых, но на деле главных житейских истин. В сложные времена человека тянет к корням, и теперь Саватари не боится вернуться в Такэхару, город детства, где все напоминает об отце. Чего бояться - ведь отец и так всегда с ней!

А в городке Такэхара, что на внутреннем Японском море, главную героиню уже ждут старые подруги и новые знакомые, вместе с которыми она станет искать счастье в каждом миге бытия. То, что недоступно глазу, увидит объектив – и при удаче снимок вспыхнет мимолетными, но яркими огоньками. Добрые приключения, прекрасная природа, исцеление души – вот что ждет персонажей этой истории. Фуу еще раз убедится, что, глядя на мир, можно заглянуть в себя – и понять, наконец, куда ведет билет на поезд, что послала ей знаменитый фотограф Рихо Сихоми!© Hollow, World Art
Информационные ссылки: AniDB | World Art | MAL
Качество: HDTVRip [url=...3765100][Исходник][/url] | Формат: MP4 | Видео кодек: XviD | Аудио кодек: AAC
Видео: 640x360 (16:9), 650 kb/s, 23.976 fps | Аудио: 128 kb/s, 48 kHz, 2ch
01. It All Started in My Town, So... / Всё началось в этом городе
02. A Day Filled with a Gentle Aroma / День, наполненный нежным ароматом
03. Arrival! Battling Girls / Прибытие! Боевые девчонки!
04. The Sound on Opportunity Island, It Is! / Звуки острова Удачи
05. Chihiro-chan Has Come! She Has / Тихиро приезжает в гости!
06. It Will Happen Someday, It Will / То, что когда-нибудь случится
07. The Promise by the Bamboo Lamps, It Is / Обещание бамбуковых фонарей
08. Unchanging People and Unchanging Times, They Are / Времена меняются, а люди всё те же
09. The Melancholy of Momoneko-sama, It Is. / Heartbreak Camera, It Is / Меланхолия Пушистика / Несчастливый фотоаппарат
10. I Wonder What I`ll Be Like Tomorrow, I Do / Какой я стану завтра?
11. The Story of a Holy Night, It Is / Рождественская история
12. A Brand New Year, It Is / Снова Новый год
General
Complete name : K:\Torrents\Мои раздачи\[ANIME СПАМ Tamayura Hitotose\Tamayura - Hitotose - 01 (640x360 XviD AAC).mp4
Format : MPEG-4
Format profile : Base Media / Version 2
Codec ID : mp42
File size : 139 MiB
Duration : 24mn 59s
Overall bit rate mode : Variable
Overall bit rate : 780 Kbps
Encoded date : UTC 2012-01-26 00:26:45
Tagged date : UTC 2012-01-26 00:26:45

Video
ID : 201
Format : MPEG-4 Visual
Format profile : Advanced [email protected]
Format settings, BVOP : No
Format settings, QPel : No
Format settings, GMC : No warppoints
Format settings, Matrix : Default (H.263)
Codec ID : 20
Duration : 24mn 59s
Bit rate mode : Variable
Bit rate : 649 Kbps
Maximum bit rate : 2 894 Kbps
Width : 640 pixels
Height : 360 pixels
Display aspect ratio : 16:9
Frame rate mode : Constant
Frame rate : 23.976 fps
Color space : YUV
Chroma subsampling : 4:2:0
Bit depth : 8 bits
Scan type : Progressive
Compression mode : Lossy
Bits/(Pixel*Frame) : 0.118
Stream size : 116 MiB (83%)
Writing library : XviD 61
Encoded date : UTC 2012-01-26 00:26:45
Tagged date : UTC 2012-01-26 00:26:54

Audio
ID : 101
Format : AAC
Format/Info : Advanced Audio Codec
Format profile : LC
Codec ID : 40
Duration : 24mn 59s
Bit rate mode : Variable
Bit rate : 128 Kbps
Maximum bit rate : 144 Kbps
Channel(s) : 2 channels
Channel positions : Front: L R
Sampling rate : 48.0 KHz
Compression mode : Lossy
Stream size : 22.9 MiB (16%)
Encoded date : UTC 2012-01-26 00:26:53
Tagged date : UTC 2012-01-26 00:26:54

Релиз подготовлен:



Трекер:  [ 02-Дек-2014 21:00 ]

  

Скачать .torrent

Размер .torrent файла 17 KB


Размер: 1.63 GB
Хэш (hash) релиза: cce8db0ba70c98771d5da3e54c62294607e989e0

Еще никто не оставлял запись к записи скачать торрент [ANIME] Тамаюра Tamayura: Hitotose . Будь первым!

!Обратная связь