Suonerie Gratis per Android™ | Gi(a)rlish Number | Folge 20

Скачать через торрент [ANIME] Акира Akira бесплатно русская версия torrent активатор

Статистика раздачи
Размер:  1.61 GB   |    Зарегистрирован:  3 года 7 месяцев   |    .torrent скачан:  55 раз   |   
Раздают:  1  
   
загрузка...
 
Автор Сообщение

Galfimbul

avatar Galfimbul


AkiraАкира


Режиссер: Кацухиро Отомо | Katsuhiro Otomo
Год выпуска: 1988
Страна: Япония
Жанр: приключения, фантастика, киберпанк, мистика
Продолжительность: 02:04:28
Перевод: Многоголосая, закадровая [Киномания]
Год 1988. Огромный взрыв наподобие тех, что без малого полвека назад сотрясли Хиросиму и Нагасаки, стирает Токио с лица земли. Нью-Токио 2019 года, восставшее из пепла, словно тёмный Феникс. Организация страны теперь напоминает тоталитарное государство, железной рукой подавляющее подпольное Сопротивление. В исследовательских центрах проводятся парапсихологические опыты над людьми для разработки совершенного вида оружия. А в стране возникает религиозный культ сверхчеловека по имени Акира, приход которого, якобы, решит все проблемы Японии. В центре повествования - банда байкеров-подростков во главе с лихачом Канэдой. В очередной разборке с соперниками друг Канэды Тэцуо пытается доказать товарищам свою доблесть, но неожиданно для себя оказывается вовлечённым в правительственный эксперимент по извлечению энергии Акиры. Тэцуо становится обладателем силы, способной полностью разрушить Нью-Токио. Кто сможет его остановить?
Качество: BDRip ([i][url=...3777347]BDRemux[/url])
Формат: MP4
Видео: AVC High L4.1, 960х512 (1.85:1), 1 709 Kbps, 23.976 fps
Аудио: AAC, 2 ch, 48 kHz, 139 Kbps[/i]

x264 [info]: frame I:1656  Avg QP:17.64  size: 71758
x264 [info]: frame P:40497 Avg QP:21.41  size: 18268
x264 [info]: frame B:136898 Avg QP:23.00  size:  5382
x264 [info]: consecutive B-frames:  2.0%  2.5%  9.4% 31.5% 21.6% 20.0%  6.0%  3.5%  1.3%  1.0%  0.5%  0.8%
x264 [info]: mb I  I16..4:  3.9% 72.0% 24.2%
x264 [info]: mb P  I16..4:  0.5%  3.7%  1.9%  P16..4: 34.7% 38.4% 12.6%  0.0%  0.0%    skip: 8.2%
x264 [info]: mb B  I16..4:  0.1%  0.4%  0.2%  B16..8: 39.0% 15.4%  2.3%  direct: 3.4%  skip:39.4%  L0:48.5% L1:47.3% BI: 4.2%
x264 [info]: 8x8 transform intra:64.7% inter:57.2%
x264 [info]: coded y,uvDC,uvAC intra: 86.9% 75.8% 48.3% inter: 19.6% 15.2% 1.1%
x264 [info]: i16 v,h,dc,p: 41% 24%  6% 28%
x264 [info]: i8 v,h,dc,ddl,ddr,vr,hd,vl,hu:  7%  6%  5% 13% 16% 13% 15% 12% 13%
x264 [info]: i4 v,h,dc,ddl,ddr,vr,hd,vl,hu: 10%  7%  4% 11% 16% 13% 14% 12% 14%
x264 [info]: i8c dc,h,v,p: 36% 30% 20% 15%
x264 [info]: Weighted P-Frames: Y:14.6% UV:4.9%
x264 [info]: ref P L0: 39.5%  9.5% 17.9%  7.5%  6.7%  4.8%  4.7%  2.4%  2.4%  2.0%  2.1%  0.6%  0.0%
x264 [info]: ref B L0: 62.1% 14.6%  7.9%  4.3%  3.1%  2.9%  2.3%  1.5%  0.9%  0.5%
x264 [info]: ref B L1: 90.9%  9.1%
x264 [info]: kb/s:1709.02
encoded 179051 frames, 12.25 fps, 1709.03 kb/s

General
Complete name                            : Z:\Downloads\Akira.mp4
Format                                   : MPEG-4
Format profile                           : Base Media
Codec ID                                 : isom
File size                                : 1.61 GiB
Duration                                 : 2h 4mn
Overall bit rate mode                    : Variable
Overall bit rate                         : 1 856 Kbps
Movie name                               : Akira
ContentType                              : Short Film
Encoded date                             : UTC 2014-11-16 15:07:33
Tagged date                              : UTC 2014-11-16 15:08:16
Writing application                      : MkvToMp4 version: 0.224 (x64)
Cover                                    : Yes
Comment                                  : |TORCHDK|

Video
ID                                       : 1
Format                                   : AVC
Format/Info                              : Advanced Video Codec
Format profile                           : [email protected]
Format settings, CABAC                   : Yes
Format settings, ReFrames                : 11 frames
Codec ID                                 : avc1
Codec ID/Info                            : Advanced Video Coding
Duration                                 : 2h 4mn
Bit rate                                 : 1 709 Kbps
Maximum bit rate                         : 8 072 Kbps
Width                                    : 960 pixels
Height                                   : 512 pixels
Display aspect ratio                     : 1.85:1
Frame rate mode                          : Constant
Frame rate                               : 23.976 fps
Color space                              : YUV
Chroma subsampling                       : 4:2:0
Bit depth                                : 8 bits
Scan type                                : Progressive
Bits/(Pixel*Frame)                       : 0.145
Stream size                              : 1.49 GiB (92%)
Writing library                          : x264 core 130 r2273 b3065e6
Encoding settings                        : cabac=1 / ref=11 / deblock=1:-1:-1 / analyse=0x3:0x113 / me=umh / subme=11 / psy=1 / psy_rd=1.00:0.00 / mixed_ref=1 / me_range=48 / chroma_me=1 / trellis=2 / 8x8dct=1 / cqm=0 / deadzone=21,11 / fast_pskip=1 / chroma_qp_offset=-2 / threads=12 / lookahead_threads=3 / sliced_threads=0 / nr=0 / decimate=1 / interlaced=0 / bluray_compat=0 / constrained_intra=0 / bframes=11 / b_pyramid=2 / b_adapt=2 / b_bias=0 / direct=1 / weightb=1 / open_gop=0 / weightp=2 / keyint=250 / keyint_min=23 / scenecut=40 / intra_refresh=0 / rc_lookahead=40 / rc=crf / mbtree=1 / crf=19.7 / qcomp=0.60 / qpmin=0 / qpmax=69 / qpstep=4 / ip_ratio=1.40 / aq=1:1.00
Language                                 : English
Encoded date                             : UTC 2014-11-16 15:07:33
Tagged date                              : UTC 2014-11-16 15:07:55

Audio
ID                                       : 2
Format                                   : AAC
Format/Info                              : Advanced Audio Codec
Format profile                           : LC
Codec ID                                 : 40
Duration                                 : 2h 4mn
Bit rate mode                            : Variable
Bit rate                                 : 139 Kbps
Maximum bit rate                         : 224 Kbps
Channel(s)                               : 2 channels
Channel positions                        : Front: L R
Sampling rate                            : 48.0 KHz
Compression mode                         : Lossy
Stream size                              : 124 MiB (7%)
Language                                 : Russian
Encoded date                             : UTC 2014-11-16 15:07:50
Tagged date                              : UTC 2014-11-16 15:07:55


Трекер:  [ 02-Дек-2014 21:00 ]

  

Скачать .torrent

Размер .torrent файла 16 KB


Размер: 1.61 GB
Хэш (hash) релиза: 89de60416aa65c3221c226e8686b8ee4abf5ba52

Еще никто не оставлял запись к записи скачать торрент [ANIME] Акира Akira . Будь первым!

!Обратная связь