Adobe Photoshop Lightroom 5 6 Final Mac OS X [ChingLiu] | Windows 10: WLAN-Passwort anzeigen – so geht's | Latest Gaming

Скачать через торрент [MC] Breaking Benjamin - Phobia бесплатно русская версия torrent активатор

Статистика раздачи
Размер:  537 MB   |    Зарегистрирован:  3 года 7 месяцев   |    .torrent скачан:  30 раз   |   
Раздают:  1  
   
загрузка...
 
Автор Сообщение

Galfimbul

avatar Galfimbul





Breaking BenjaminPhobia


Год выпуска: 2007
Страна: США
Жанр: Alternative metal, Post-grunge
Продолжительность: 01:01:33


В апреле 2007 года вышел Phobia Collector’s Edition и DVD Live - The Homecoming -. Специальное издание, включающее в себя видеозапись и треки с выступления на Stabler Arena (город Бетлехем, Пенсильвания) в феврале 2007 года.


Качество: DVDRip ([url=...916935]DVD5[/url])
Формат: MP4
Видео: AVC High L3.1, 640х360 (16:9), 1 080 Kbps, 29.970 fps
Аудио: AAC, 2 ch, 48 kHz, 132 Kbps


Polyamorous
Home
Shallow Bay
Breakdown
Topless
Away
The Diary of Jane
Dance with the Devil
Until the End
Had Enough
Sooner or Later
Break My Fall
So Cold
Breath
Evil Angel

x264 [info]: frame I:908   Avg QP:20.56  size: 24756
x264 [info]: frame P:25914 Avg QP:24.22  size:  9148
x264 [info]: frame B:83844 Avg QP:27.50  size:  2851
x264 [info]: consecutive B-frames:  1.9%  3.3% 11.7% 27.6% 23.0% 28.9%  2.8%  0.5%  0.4%
x264 [info]: mb I  I16..4: 10.7% 68.0% 21.3%
x264 [info]: mb P  I16..4:  0.6%  6.7%  1.4%  P16..4: 35.2% 37.7% 11.9%  0.0%  0.0%    skip: 6.6%
x264 [info]: mb B  I16..4:  0.1%  0.8%  0.1%  B16..8: 40.1% 17.8%  2.7%  direct: 4.0%  skip:34.4%  L0:41.7% L1:47.6% BI:10.7%
x264 [info]: 8x8 transform intra:75.3% inter:62.2%
x264 [info]: direct mvs  spatial:87.1% temporal:12.9%
x264 [info]: coded y,uvDC,uvAC intra: 82.1% 81.2% 49.9% inter: 16.5% 17.8% 2.5%
x264 [info]: i16 v,h,dc,p: 28% 18%  3% 51%
x264 [info]: i8 v,h,dc,ddl,ddr,vr,hd,vl,hu: 12%  5%  3% 11% 16% 14% 15% 12% 13%
x264 [info]: i4 v,h,dc,ddl,ddr,vr,hd,vl,hu: 12%  5%  3% 10% 15% 14% 15% 11% 14%
x264 [info]: i8c dc,h,v,p: 36% 25% 20% 19%
x264 [info]: Weighted P-Frames: Y:16.3% UV:12.7%
x264 [info]: ref P L0: 50.7%  9.7% 17.7%  5.6%  4.4%  3.1%  2.8%  1.4%  1.3%  1.1%  1.0%  0.9%  0.3%  0.0%
x264 [info]: ref B L0: 79.5%  9.1%  4.4%  2.1%  1.4%  1.1%  0.9%  0.5%  0.5%  0.3%  0.2%
x264 [info]: ref B L1: 94.4%  5.6%
x264 [info]: kb/s:1080.14
encoded 110666 frames, 3.15 fps, 1080.14 kb/s

General
Complete name                            : Z:\Downloads\Breaking Benjamin Live -The Homecoming-.mp4
Format                                   : MPEG-4
Format profile                           : Base Media
Codec ID                                 : isom
File size                                : 537 MiB
Duration                                 : 1h 1mn
Overall bit rate mode                    : Variable
Overall bit rate                         : 1 221 Kbps
Movie name                               : Breaking Benjamin Live -The Homecoming-
Album                                    : Phobia
Performer                                : Breaking Benjamin
ContentType                              : Music Video
Encoded date                             : UTC 2014-11-20 20:35:30
Tagged date                              : UTC 2014-11-20 20:35:48
Writing application                      : MkvToMp4 version: 0.224 (x64)
Cover                                    : Yes
Comment                                  : |TORCHDK|

Video
ID                                       : 1
Format                                   : AVC
Format/Info                              : Advanced Video Codec
Format profile                           : [email protected]
Format settings, CABAC                   : Yes
Format settings, ReFrames                : 12 frames
Codec ID                                 : avc1
Codec ID/Info                            : Advanced Video Coding
Duration                                 : 1h 1mn
Bit rate                                 : 1 080 Kbps
Maximum bit rate                         : 4 879 Kbps
Width                                    : 640 pixels
Height                                   : 360 pixels
Display aspect ratio                     : 16:9
Frame rate mode                          : Constant
Frame rate                               : 29.970 fps
Color space                              : YUV
Chroma subsampling                       : 4:2:0
Bit depth                                : 8 bits
Scan type                                : Progressive
Bits/(Pixel*Frame)                       : 0.156
Stream size                              : 475 MiB (88%)
Writing library                          : x264 core 130 r2273 b3065e6
Encoding settings                        : cabac=1 / ref=12 / deblock=1:-2:-1 / analyse=0x3:0x113 / me=tesa / subme=11 / psy=1 / psy_rd=1.00:0.00 / mixed_ref=1 / me_range=64 / chroma_me=1 / trellis=2 / 8x8dct=1 / cqm=0 / deadzone=21,11 / fast_pskip=1 / chroma_qp_offset=-2 / threads=12 / lookahead_threads=2 / sliced_threads=0 / nr=0 / decimate=1 / interlaced=0 / bluray_compat=0 / constrained_intra=0 / bframes=8 / b_pyramid=2 / b_adapt=2 / b_bias=0 / direct=3 / weightb=1 / open_gop=0 / weightp=2 / keyint=250 / keyint_min=25 / scenecut=40 / intra_refresh=0 / rc_lookahead=40 / rc=2pass / mbtree=1 / bitrate=1080 / ratetol=1.0 / qcomp=0.60 / qpmin=0 / qpmax=69 / qpstep=4 / cplxblur=20.0 / qblur=0.5 / ip_ratio=1.40 / aq=1:1.00
Language                                 : English
Encoded date                             : UTC 2014-11-20 20:35:30
Tagged date                              : UTC 2014-11-20 20:35:39

Audio
ID                                       : 2
Format                                   : AAC
Format/Info                              : Advanced Audio Codec
Format profile                           : LC
Codec ID                                 : 40
Duration                                 : 1h 1mn
Bit rate mode                            : Variable
Bit rate                                 : 132 Kbps
Maximum bit rate                         : 157 Kbps
Channel(s)                               : 2 channels
Channel positions                        : Front: L R
Sampling rate                            : 48.0 KHz
Compression mode                         : Lossy
Stream size                              : 57.9 MiB (11%)
Language                                 : English
Encoded date                             : UTC 2014-11-20 20:35:36
Tagged date                              : UTC 2014-11-20 20:35:39


Трекер:  [ 02-Дек-2014 21:00 ]

  

Скачать .torrent

Размер .torrent файла 11 KB


Размер: 537 MB
Хэш (hash) релиза: cdae6f24e54dfa90cf2018d4aa99b546e7c4a1dd

Еще никто не оставлял запись к записи скачать торрент [MC] Breaking Benjamin - Phobia . Будь первым!

!Обратная связь