Gunslinger Girl | Better Call Saul S03E01 1080p NF WEBRip DD5 1 x264 ViSUM rarbg | Mystery, Thriller Suspense

Скачать через торрент [VIDEO] Танцующий с волками Dances with Wolves бесплатно русская версия torrent активатор

Статистика раздачи
Размер:  1.35 GB   |    Зарегистрирован:  3 года 7 месяцев   |    .torrent скачан:  51 раз   |   
Раздают:  1  
   
загрузка...
 
Автор Сообщение

Galfimbul

avatar Galfimbul


Танцующий с волками / Dances with Wolves



Год выпуска: 1990

Страна: Великобритания, США
Жанр: вестерн, драма, приключения
Продолжительность: 03:56:40
Перевод: Профессиональный (многоголосый закадровый) Позитив-Мультимедиа
Cубтитры: нет
Режиссер: Кевин Костнер / Kevin Costner
В ролях: Кевин Костнер, Мэри МакДоннелл, Грэм Грин, Родни А. Грант, Флойд «Ред Кроу» Уэстермен, Танту Кардинал, Роберт Пасторелли, Чарльз Роккет, Мори Чайкин, Джимми Херман
Описание: Действие фильма происходит в США во времена Гражданской войны. Лейтенант американской армии Джон Данбар после ранения в бою просит перевести его на новое место службы ближе к западной границе США. Место его службы отдалённый маленький форт. Непосредственный его командир покончил жизнь самоубийством, а попутчик Данбара погиб в стычке с индейцами после того, как довез героя до места назначения. Людей, знающих, что Данбар остался один в форте и должен выжить в условиях суровой природы, и в соседстве с кажущимися негостеприимными коренными обитателями Северной Америки, просто не осталось. Казалось, он покинут всеми. Постепенно лейтенант осваивается, он ведет записи в дневнике...



Качество: HDRip
Формат: MP4
Видео: AVC at 679 Kbps, 640 x 272 (2.367) at 23.976 fps
Аудио: AAC at 128 Kbps, 2 channels, 48.0 KHz
GeneralComplete name : G:\Танцующий с волками (1990) 640х.mp4Format : MPEG-4Format profile : Base MediaCodec ID : isomFile size : 1.35 GiBDuration : 3h 56mnOverall bit rate mode : VariableOverall bit rate : 814 KbpsMovie name : Dances with Wolves (1990) Director's ะกut [by Alien.09]Encoded date : UTC 2014-11-21 17:17:47Tagged date : UTC 2014-11-21 17:19:16Writing application : MkvToMp4 version: 0.224 (x64)Comment : Dances with Wolves (1990) Director's Сut [by Alien.09]hdvd : 0stik : 9

VideoID : 1Format : AVCFormat/Info : Advanced Video CodecFormat profile : [email protected] settings, CABAC : YesFormat settings, ReFrames : 3 framesCodec ID : avc1Codec ID/Info : Advanced Video CodingDuration : 3h 56mnBit rate : 679 KbpsMaximum bit rate : 5 335 KbpsWidth : 640 pixelsHeight : 272 pixelsDisplay aspect ratio : 2.35:1Frame rate mode : ConstantFrame rate : 23.976 fpsColor space : YUVChroma subsampling : 4:2:0Bit depth : 8 bitsScan type : ProgressiveBits/(Pixel*Frame) : 0.163Stream size : 1.12 GiB (83%)Writing library : x264 core 125 r2200M 999b753Encoding settings : cabac=1 / ref=3 / deblock=1:0:0 / analyse=0x1:0x131 / me=hex / subme=7 / psy=1 / psy_rd=1.00:0.20 / mixed_ref=1 / me_range=16 / chroma_me=1 / trellis=1 / 8x8dct=0 / cqm=0 / deadzone=21,11 / fast_pskip=1 / chroma_qp_offset=-3 / threads=4 / lookahead_threads=1 / sliced_threads=0 / nr=0 / decimate=1 / interlaced=0 / bluray_compat=0 / constrained_intra=0 / bframes=3 / b_pyramid=0 / b_adapt=2 / b_bias=0 / direct=3 / weightb=1 / open_gop=0 / weightp=0 / keyint=230 / keyint_min=23 / scenecut=40 / intra_refresh=0 / rc_lookahead=40 / rc=2pass / mbtree=1 / bitrate=679 / ratetol=1.0 / qcomp=0.60 / qpmin=10 / qpmax=51 / qpstep=4 / cplxblur=20.0 / qblur=0.5 / vbv_maxrate=5000 / vbv_bufsize=1835 / nal_hrd=none / ip_ratio=1.40 / aq=1:1.00Language : EnglishEncoded date : UTC 2014-11-21 17:17:47Tagged date : UTC 2014-11-21 17:18:14

AudioID : 2Format : AACFormat/Info : Advanced Audio CodecFormat profile : LCCodec ID : 40Duration : 3h 56mnBit rate mode : VariableBit rate : 128 KbpsMaximum bit rate : 228 KbpsChannel(s) : 2 channelsChannel positions : Front: L RSampling rate : 48.0 KHzCompression mode : LossyStream size : 217 MiB (16%)Language : RussianEncoded date : UTC 2014-11-21 17:18:08Tagged date : UTC 2014-11-21 17:18:14


Трекер:  [ 02-Дек-2014 21:00 ]

  

Скачать .torrent

Размер .torrent файла 14 KB


Размер: 1.35 GB
Хэш (hash) релиза: ccb9ea94a91fdaa85a652ad4a74119a2143fa514

Еще никто не оставлял запись к записи скачать торрент [VIDEO] Танцующий с волками Dances with Wolves . Будь первым!

!Обратная связь