Summertime FRENCH WEBRIP 2018 | Email this Page | X – Die Serie

Скачать через торрент [VIDEO] Бегство мистера Мак-Кинли бесплатно русская версия torrent активатор

Статистика раздачи
Размер:  690 MB   |    Зарегистрирован:  3 года 7 месяцев   |    .torrent скачан:  33 раза   |   
Раздают:  1  
   
загрузка...
 
Автор Сообщение

Galfimbul

avatar Galfimbul


Бегство мистера Мак-Кинли
Год выпуска: 1975
Страна: СССР (Мосфильм)
Жанр: Фантастика, фэнтези
Продолжительность: 01:09:24 + 01:23:10
Перевод: Не требуется
Cубтитры: Нет
Режиссер: Михаил Швейцер
В ролях: Донатос Банионис, Жанна Болотова, Ангелина Степанова, Борис Бабочкин, Алла Демидова, Владимир Высоцкий, Татьяна Лаврова, Игорь Кашинцев, Игорь Кваша, Леонид Куравлев
Описание: Главный герой фильма (Мак-Кинли) — маленький человек, клерк в одном из рекламных бюро — очень любит детей (заочно) и мечтает завести кучу собственных детишек. Завести детей ему мешает комплекс собственной неполноценности, ощущаемый героем как страх перед ядерной войной и мировой катастрофой. Мак-Кинли стремится убежать и от окружающего мира и от самого себя (несмотря на наличие хорошенькой женщины рядом, давно строящей на него планы). Попав на пресс-конференцию фирмы SBS, создающей и обслуживающей сеть сальваториев Мак-Кинли привлекает внимание одного из топ-менеджеров этой фирмы и получает приглашение (в рекламных целях) посетить один из сальваториев и ознакомится с его работой, как говорится, на месте. Теперь у зачарованого хайтеком сальваториев мистера Мак-Кинли осталась одна мечта в этой жизни — попасть в сальваторий и сбежать в будущее. Ради этого он готов пойти даже на преступление…

Качество: DVDRip (Рип с [url=...1433122]DVD9[/url])
Формат: MP4
Видео: XviD, 416х320 (4:3), 499 kbps, 25.000 fps
Аудио: Русский, AAC, 2 ch, 48 kHz, 128 kbps
Премия за музыку на МКФ в Триесте в 1977 году.
General
Complete name : Begstvo.Mistera.Mak-Kinli.1975.DVDRip.XviD.480x(semen_52-TNC)\[VIDEO] Begstvo.Mistera.Mak-Kinli.S01.1975.DVDRip.XviD.480x(semen_52-TNC).mp4
Format : MPEG-4
Format profile : Base Media
Codec ID : isom
File size : 314 MiB
Duration : 1h 9mn
Overall bit rate mode : Variable
Overall bit rate : 632 Kbps
Movie name : [VIDEO] Begstvo Mistera Mak-Kinli S01 1975 DVDRip XviD 480x(semen_52-TNC)
ContentType : Short Film
Encoded date : UTC 2014-11-21 20:47:58
Tagged date : UTC 2014-11-21 20:52:29
Writing application : MkvToMp4 version: 0.224 (x64)
Comment : Rip by semen_52-TNC

Video
ID : 1
Format : MPEG-4 Visual
Format profile : Advanced [email protected]
Format settings, BVOP : No
Format settings, QPel : No
Format settings, GMC : No warppoints
Format settings, Matrix : Custom
Codec ID : 20
Duration : 1h 9mn
Bit rate mode : Variable
Bit rate : 499 Kbps
Maximum bit rate : 1 793 Kbps
Width : 416 pixels
Height : 320 pixels
Display aspect ratio : 4:3
Frame rate mode : Constant
Frame rate : 25.000 fps
Color space : YUV
Chroma subsampling : 4:2:0
Bit depth : 8 bits
Scan type : Progressive
Compression mode : Lossy
Bits/(Pixel*Frame) : 0.150
Stream size : 248 MiB (79%)
Writing library : XviD 73
Language : English
Tagged date : UTC 2014-11-21 20:48:04

Audio
ID : 2
Format : AAC
Format/Info : Advanced Audio Codec
Format profile : LC
Codec ID : 40
Duration : 1h 9mn
Bit rate mode : Variable
Bit rate : 128 Kbps
Maximum bit rate : 138 Kbps
Channel(s) : 2 channels
Channel positions : Front: L R
Sampling rate : 48.0 KHz
Compression mode : Lossy
Stream size : 63.5 MiB (20%)
Language : Russian
Encoded date : UTC 2014-11-21 20:48:01
Tagged date : UTC 2014-11-21 20:48:04


Трекер:  [ 02-Дек-2014 21:00 ]

  

Скачать .torrent

Размер .torrent файла 14 KB


Размер: 690 MB
Хэш (hash) релиза: 68727e4487175a1572d2d31bc8085cb40039bd50

Еще никто не оставлял запись к записи скачать торрент [VIDEO] Бегство мистера Мак-Кинли . Будь первым!

!Обратная связь