The Spinning Wheel
Jai Ho India Uyeshare

Скачать через торрент [VIDEO] Самолетом, поездом, машиной Planes, Trains & Automobiles бесплатно русская версия torrent активатор

Статистика раздачи
Размер:  321 MB   |    Зарегистрирован:  3 года 4 месяца   |    .torrent скачан:  41 раз   |   
Раздают:  1  
   
загрузка...
 
Автор Сообщение

Galfimbul

avatar Galfimbul


Самолетом, поездом, машиной
Planes, Trains & Automobiles

Год выпуска: 1987
Страна: США (Hughes Entertainment, Paramount Pictures)
Жанр: Драма, комедия, приключения
Продолжительность: 01:32:28
Перевод: Авторский (одноголосый, закадровый) [А. Михалёв]
Оригинальная дорожка: Нет
Cубтитры: Нет
Режиссер: Джон Хьюз / John Hughes
В ролях: Стив Мартин, Джон Кэнди, Лайла Робинс, Майкл МакКин, Дилан Бейкер, Кэрол Брюс, Оливия Бернетт, Диана Дуглас, Мартин Ферреро, Ларри Хэнкин
Описание: Все, что было нужно преуспевающему «рекламщику» Нилу Пэйджу, так это успеть домой ко Дню Благодарения. Ведь это так просто: купить билет на самолет, совершить комфортабельный полет до родного Чикаго и уже вечером сесть за праздничный стол со всей своей семьей. Но случилось так, что это оказалось чудовищно трудной задачей. Путь домой станет для Нила самым невероятным приключением всей его жизни!

Качество: HDRip (Рип с [url=...3822832]BDRip 720p[/url])
Формат: MP4
Видео: XviD, 320х176 (16:9), 353 kbps, 23.976 fps
Аудио: Русский, AAC, 2 ch, 48 kHz, 128 kbps [AVO, А. Михалёв]
В картине присутствует одна сцена, которая напрочь выпадает из этой, в целом, безконфликтной семейной комедии — ссора со служащей из конторы по прокату автомобилей, где герои фильма произносят слово «fuck» 19 раз. Из-за этого фильм получил рейтинг R — MPAA, а эту сцену при показе фильма по телевидению чаще всего вырезают.
General
Complete name : [VIDEO] Planes.Trains.Automobiles.1987.HDRip.XviD.320x(semen_52-TNC).mp4
Format : MPEG-4
Format profile : Base Media
Codec ID : isom
File size : 321 MiB
Duration : 1h 32mn
Overall bit rate mode : Variable
Overall bit rate : 486 Kbps
Movie name : [VIDEO] Planes Trains Automobiles 1987 HDRip XviD 320x(semen_52-TNC)
ContentType : Short Film
Encoded date : UTC 2014-11-22 11:38:25
Tagged date : UTC 2014-11-22 11:38:46
Writing application : MkvToMp4 version: 0.224 (x64)
Comment : Rip by semen_52-TNC

Video
ID : 1
Format : MPEG-4 Visual
Format profile : Advanced [email protected]
Format settings, BVOP : No
Format settings, QPel : No
Format settings, GMC : No warppoints
Format settings, Matrix : Custom
Codec ID : 20
Duration : 1h 32mn
Bit rate mode : Variable
Bit rate : 353 Kbps
Maximum bit rate : 1 946 Kbps
Width : 320 pixels
Height : 176 pixels
Display aspect ratio : 16:9
Frame rate mode : Constant
Frame rate : 23.976 fps
Color space : YUV
Chroma subsampling : 4:2:0
Bit depth : 8 bits
Scan type : Progressive
Compression mode : Lossy
Bits/(Pixel*Frame) : 0.261
Stream size : 233 MiB (73%)
Writing library : XviD 73
Language : English
Tagged date : UTC 2014-11-22 11:38:33

Audio
ID : 2
Format : AAC
Format/Info : Advanced Audio Codec
Format profile : LC
Codec ID : 40
Duration : 1h 32mn
Bit rate mode : Variable
Bit rate : 128 Kbps
Maximum bit rate : 135 Kbps
Channel(s) : 2 channels
Channel positions : Front: L R
Sampling rate : 48.0 KHz
Compression mode : Lossy
Stream size : 84.7 MiB (26%)
Title : AVO Mihalev
Language : Russian
Encoded date : UTC 2014-11-22 11:38:27
Tagged date : UTC 2014-11-22 11:38:33


Трекер:  [ 02-Дек-2014 21:00 ]

  

Скачать .torrent

Размер .torrent файла 13 KB


Размер: 321 MB
Хэш (hash) релиза: a1989517c1264a269bdae5ba415fb4f7ee0fdeba

Еще никто не оставлял запись к записи скачать торрент [VIDEO] Самолетом, поездом, машиной Planes, Trains & Automobiles . Будь первым!

!Обратная связь