Suivant → | Fantasia | Linc Hand

Скачать через торрент [VIDEO] Отпетые мошенники Dirty Rotten Scoundrels бесплатно русская версия torrent активатор

Статистика раздачи
Размер:  382 MB   |    Зарегистрирован:  3 года 7 месяцев   |    .torrent скачан:  42 раза   |   
Раздают:  1  
   
загрузка...
 
Автор Сообщение

Galfimbul

avatar Galfimbul


Отпетые мошенники
Dirty Rotten Scoundrels

Год выпуска: 1988
Страна: США (Orion Pictures Corporation)
Жанр: Комедия, криминал
Продолжительность: 01:50:21
Перевод: Профессиональный (многоголосый, закадровый)
Оригинальная дорожка: Нет
Cубтитры: Нет
Режиссер: Фрэнк Оз / Frank Oz
В ролях: Стив Мартин, Майкл Кейн, Гленн Хедли, Антон Роджерс, Барбара Хэррис, Ян МакДермид, Дэна Айви, Меган Фэй, Фрэнсис Конрой, Николь Кальфан
Описание: Судьба сводит двух мошенников - Фредди Бенсона и Лоуренса Джемисона, специализирующихся в качестве жиголо на оболванивании богатеньких дам. В городке, где-то на юге Франции, Фредди сначала берет уроки у мэтра Лоуренса, но, повздорив, коллеги заключают пари: кто из них первый охмурит незнакомую богатую женщину, тот остается в городе, а проигравший должен убраться. Предмет спора не замедлил явиться в виде симпатичной и обаятельной "мыльной королевы" Америки - Дженет...

Качество: HDRip (Рип с [url=...3588016]BDRip 720p[/url])
Формат: MP4
Видео: XviD, 320х176 (16:9), 351 kbps, 23.976 fps
Аудио: Русский, AAC, 2 ch, 48 kHz, 128 kbps [MVO (перевод №5 исходника)]
Золотой глобус, 1989 год
Номинации (1):
Лучшая мужская роль (комедия или мюзикл) (Майкл Кейн)
В начальных титрах фильма, после главных актеров, вместо слова «In» (в фильме…), шло слово «are», что можно перевести как «Стив Мартин и Майкл Кейн — отпетые мошенники».
General
Complete name : [VIDEO] Dirty.Rotten.Scoundrels.1988.HDRip.XviD.320x(semen_52-TNC).mp4
Format : MPEG-4
Format profile : Base Media
Codec ID : isom
File size : 382 MiB
Duration : 1h 50mn
Overall bit rate mode : Variable
Overall bit rate : 484 Kbps
Movie name : [VIDEO] Dirty Rotten Scoundrels 1988 HDRip XviD 320x(semen_52-TNC)
ContentType : Short Film
Encoded date : UTC 2014-11-22 11:22:28
Tagged date : UTC 2014-11-22 11:23:49
Writing application : MkvToMp4 version: 0.224 (x64)
Comment : Rip by semen_52-TNC

Video
ID : 1
Format : MPEG-4 Visual
Format profile : Advanced [email protected]
Format settings, BVOP : No
Format settings, QPel : No
Format settings, GMC : No warppoints
Format settings, Matrix : Custom
Codec ID : 20
Duration : 1h 50mn
Bit rate mode : Variable
Bit rate : 351 Kbps
Maximum bit rate : 1 344 Kbps
Width : 320 pixels
Height : 176 pixels
Display aspect ratio : 16:9
Frame rate mode : Constant
Frame rate : 23.976 fps
Color space : YUV
Chroma subsampling : 4:2:0
Bit depth : 8 bits
Scan type : Progressive
Compression mode : Lossy
Bits/(Pixel*Frame) : 0.260
Stream size : 277 MiB (72%)
Writing library : XviD 73
Language : English
Tagged date : UTC 2014-11-22 11:22:48

Audio
ID : 2
Format : AAC
Format/Info : Advanced Audio Codec
Format profile : LC
Codec ID : 40
Duration : 1h 50mn
Bit rate mode : Variable
Bit rate : 128 Kbps
Maximum bit rate : 135 Kbps
Channel(s) : 2 channels
Channel positions : Front: L R
Sampling rate : 48.0 KHz
Compression mode : Lossy
Stream size : 101 MiB (26%)
Title : MVO
Language : Russian
Encoded date : UTC 2014-11-22 11:22:31
Tagged date : UTC 2014-11-22 11:22:48


Трекер:  [ 02-Дек-2014 21:00 ]

  

Скачать .torrent

Размер .torrent файла 15 KB


Размер: 382 MB
Хэш (hash) релиза: 008e60770593499dca580bb92a8e818e0502ad06

Еще никто не оставлял запись к записи скачать торрент [VIDEO] Отпетые мошенники Dirty Rotten Scoundrels . Будь первым!

!Обратная связь