El Circulo - 2017 | Efeitos Sonoros | [A3] Thanh Ninh Chi Hạ

Скачать через торрент [SERIAL] Карпов. Сезон третий Серии: 1-32 из 32 бесплатно русская версия torrent активатор

Статистика раздачи
Размер:  4.83 GB   |    Зарегистрирован:  3 года 7 месяцев   |    .torrent скачан:  40 раз   |   
Раздают:  1  
   
загрузка...
 
Автор Сообщение

Galfimbul

avatar Galfimbul


Карпов
Год выпуска: 2014
Страна: Россия (DiхiMedia)
Жанр: Детектив, криминал
Продолжительность: 32 х ~ 00:43:00
Перевод: Не требуется
Cубтитры: Нет
Режиссер: Иван Щёголев, Владислав Николаев
В ролях: Владислав Котлярский, Юлия Майборода, Степан Рожнов, Анатолий Петров, Дмитрий Блажко, Николай Козак, Денис Рожков, Наталья Гудкова, Мария Болтнева, Юрий Пономаренко, Владислав Шкляев, Светлана Васильева, Егор Баринов, Евгений Смирнов-Иваницкий, Геннадий Христенко, Владимир Яковлев (II), Дмитрий Мазуров, Олег Кассин, Виктория Тарасова, Юлия Юрченко, Ярослав Леонов, Валерий Смекалов, Михаил Инчин, Дмитрий Воронцов (II)
Описание: В третьей части сериала полюбившиеся зрителю герои объявят войну банде торговцев детьми и их клиентам-педофилам. Карпов и его компания примут решение расправиться с торговцами детьми "по-тихому", каждый раз маскируя их гибель под несчастный случай. Но, между тем, бывшие менты прекрасно понимают: истребить преступников до конца невозможно. И на их место непременно придут новые.

[url=...287&nm=%D0%BA%D0%B0%D1%80%D0%BF%D0%BE%D0%B2]Все раздачи сериала[/url]
Качество: DVBRip (Рип с DVB от Files-x)
Формат: MP4
Видео: AVC, 320х176 (16:9), 25.000 fps, 350 Kbps
Аудио: Русский, AAC, 48.0 KHz, 2 ch, 128 Kbps
<ol type="1">
Убийца
Откровение
Когда мы были милицией
Цепные псы
Кровь их на них
Ребёнок
Заметая следы
Выхода нет
Жертва
Всего одна ночь
Побег
Город N
Мышеловка
Банда
Старый друг
Свет в аду
Необходимое зло
Выбирая сторону
Король
Война и мир
Мама
По закону
Родная кровь
Круговорот
Опасное видео
Темные пятна
Шрамы
Безумный мир
Заложница
Мясо
Отец и дети
Хороший человек
</ol>
General
Complete name : Karpov.2014.S03.DVBRip.x264.320x(semen_52-TNC)\[SERIAL] Karpov.2014.S03E01.DVBRip.x264.320x(semen_52-TNC).mp4
Format : MPEG-4
Format profile : Base Media
Codec ID : isom
File size : 148 MiB
Duration : 42mn 43s
Overall bit rate mode : Variable
Overall bit rate : 483 Kbps
Collection : Karpov
Season : 3
Part : 1
ContentType : TV Show
Encoded date : UTC 2014-11-23 08:34:50
Tagged date : UTC 2014-11-23 08:35:18
Writing application : MkvToMp4 version: 0.224 (x64)
Comment : Rip by semen_52-TNC
Title/Sort : Karpov

Video
ID : 1
Format : AVC
Format/Info : Advanced Video Codec
Format profile : [email protected]
Format settings, CABAC : No
Format settings, ReFrames : 6 frames
Codec ID : avc1
Codec ID/Info : Advanced Video Coding
Duration : 42mn 43s
Bit rate : 350 Kbps
Maximum bit rate : 1 164 Kbps
Width : 320 pixels
Height : 176 pixels
Display aspect ratio : 16:9
Frame rate mode : Constant
Frame rate : 25.000 fps
Color space : YUV
Chroma subsampling : 4:2:0
Bit depth : 8 bits
Scan type : Progressive
Bits/(Pixel*Frame) : 0.249
Stream size : 107 MiB (72%)
Writing library : x264 core 130 r2273 b3065e6
Encoding settings : cabac=0 / ref=6 / deblock=1:-1:-1 / analyse=0x1:0x131 / me=umh / subme=7 / psy=1 / psy_rd=1.00:0.00 / mixed_ref=1 / me_range=16 / chroma_me=1 / trellis=2 / 8x8dct=0 / cqm=0 / deadzone=21,11 / fast_pskip=0 / chroma_qp_offset=-2 / threads=12 / lookahead_threads=2 / sliced_threads=0 / nr=0 / decimate=1 / interlaced=0 / bluray_compat=0 / constrained_intra=0 / bframes=0 / weightp=0 / keyint=250 / keyint_min=25 / scenecut=40 / intra_refresh=0 / rc_lookahead=60 / rc=2pass / mbtree=1 / bitrate=350 / ratetol=1.0 / qcomp=0.60 / qpmin=0 / qpmax=69 / qpstep=4 / cplxblur=20.0 / qblur=0.5 / ip_ratio=1.40 / aq=1:1.00
Language : English
Encoded date : UTC 2014-11-23 08:34:50
Tagged date : UTC 2014-11-23 08:35:00

Audio
ID : 2
Format : AAC
Format/Info : Advanced Audio Codec
Format profile : LC
Codec ID : 40
Duration : 42mn 43s
Bit rate mode : Variable
Bit rate : 128 Kbps
Maximum bit rate : 131 Kbps
Channel(s) : 2 channels
Channel positions : Front: L R
Sampling rate : 48.0 KHz
Compression mode : Lossy
Stream size : 39.1 MiB (26%)
Language : Russian
Encoded date : UTC 2014-11-23 08:34:53
Tagged date : UTC 2014-11-23 08:35:00


Трекер:  [ 02-Дек-2014 21:00 ]

  

Скачать .torrent

Размер .torrent файла 27 KB


Размер: 4.83 GB
Хэш (hash) релиза: c9eae84ccb9d75dc6c91e3444f39c3e8565cb117

Еще никто не оставлял запись к записи скачать торрент [SERIAL] Карпов. Сезон третий Серии: 1-32 из 32 . Будь первым!

!Обратная связь